  0
SECTION
  2
HEADER
  9
$ACADVER
  1
AC1015
  9
$ACADMAINTVER
 70
     6
  9
$DWGCODEPAGE
  3
ANSI_1252
  9
$INSBASE
 10
0.0
 20
0.0
 30
0.0
  9
$EXTMIN
 10
-387.784075539879
 20
-144.153011184964
 30
0.0
  9
$EXTMAX
 10
770.691656501182
 20
317.846988815036
 30
0.0
  9
$LIMMIN
 10
0.0
 20
0.0
  9
$LIMMAX
 10
420.0
 20
297.0
  9
$ORTHOMODE
 70
     0
  9
$REGENMODE
 70
     1
  9
$FILLMODE
 70
     1
  9
$QTEXTMODE
 70
     0
  9
$MIRRTEXT
 70
     1
  9
$LTSCALE
 40
5.0
  9
$ATTMODE
 70
     1
  9
$TEXTSIZE
 40
2.5
  9
$TRACEWID
 40
1.0
  9
$TEXTSTYLE
  7
Standard
  9
$CLAYER
  8
0
  9
$CELTYPE
  6
ByLayer
  9
$CECOLOR
 62
   256
  9
$CELTSCALE
 40
1.0
  9
$DISPSILH
 70
     0
  9
$DIMSCALE
 40
1.0
  9
$DIMASZ
 40
2.5
  9
$DIMEXO
 40
0.625
  9
$DIMDLI
 40
3.75
  9
$DIMRND
 40
0.0
  9
$DIMDLE
 40
0.0
  9
$DIMEXE
 40
1.25
  9
$DIMTP
 40
0.0
  9
$DIMTM
 40
0.0
  9
$DIMTXT
 40
2.5
  9
$DIMCEN
 40
2.5
  9
$DIMTSZ
 40
0.0
  9
$DIMTOL
 70
     0
  9
$DIMLIM
 70
     0
  9
$DIMTIH
 70
     0
  9
$DIMTOH
 70
     0
  9
$DIMSE1
 70
     0
  9
$DIMSE2
 70
     0
  9
$DIMTAD
 70
     1
  9
$DIMZIN
 70
     8
  9
$DIMBLK
  1

  9
$DIMASO
 70
     1
  9
$DIMSHO
 70
     1
  9
$DIMPOST
  1

  9
$DIMAPOST
  1

  9
$DIMALT
 70
     0
  9
$DIMALTD
 70
     3
  9
$DIMALTF
 40
0.03937007874
  9
$DIMLFAC
 40
1.0
  9
$DIMTOFL
 70
     1
  9
$DIMTVP
 40
0.0
  9
$DIMTIX
 70
     0
  9
$DIMSOXD
 70
     0
  9
$DIMSAH
 70
     0
  9
$DIMBLK1
  1

  9
$DIMBLK2
  1

  9
$DIMSTYLE
  2
ISO-25
  9
$DIMCLRD
 70
     0
  9
$DIMCLRE
 70
     0
  9
$DIMCLRT
 70
     0
  9
$DIMTFAC
 40
1.0
  9
$DIMGAP
 40
0.625
  9
$DIMJUST
 70
     0
  9
$DIMSD1
 70
     0
  9
$DIMSD2
 70
     0
  9
$DIMTOLJ
 70
     0
  9
$DIMTZIN
 70
     8
  9
$DIMALTZ
 70
     0
  9
$DIMALTTZ
 70
     0
  9
$DIMUPT
 70
     0
  9
$DIMDEC
 70
     2
  9
$DIMTDEC
 70
     2
  9
$DIMALTU
 70
     2
  9
$DIMALTTD
 70
     3
  9
$DIMTXSTY
  7
Standard
  9
$DIMAUNIT
 70
     0
  9
$DIMADEC
 70
     0
  9
$DIMALTRND
 40
0.0
  9
$DIMAZIN
 70
     0
  9
$DIMDSEP
 70
    44
  9
$DIMATFIT
 70
     3
  9
$DIMFRAC
 70
     0
  9
$DIMLDRBLK
  1

  9
$DIMLUNIT
 70
     2
  9
$DIMLWD
 70
    -2
  9
$DIMLWE
 70
    -2
  9
$DIMTMOVE
 70
     0
  9
$LUNITS
 70
     2
  9
$LUPREC
 70
     4
  9
$SKETCHINC
 40
1.0
  9
$FILLETRAD
 40
0.0
  9
$AUNITS
 70
     0
  9
$AUPREC
 70
     0
  9
$MENU
  1
.
  9
$ELEVATION
 40
0.0
  9
$PELEVATION
 40
0.0
  9
$THICKNESS
 40
0.0
  9
$LIMCHECK
 70
     0
  9
$CHAMFERA
 40
0.0
  9
$CHAMFERB
 40
0.0
  9
$CHAMFERC
 40
0.0
  9
$CHAMFERD
 40
0.0
  9
$SKPOLY
 70
     0
  9
$TDCREATE
 40
2459584.573275879
  9
$TDUCREATE
 40
2459584.531609213
  9
$TDUPDATE
 40
2459584.573334584
  9
$TDUUPDATE
 40
2459584.531667917
  9
$TDINDWG
 40
0.0000000116
  9
$TDUSRTIMER
 40
0.0000000116
  9
$USRTIMER
 70
     1
  9
$ANGBASE
 50
0.0
  9
$ANGDIR
 70
     0
  9
$PDMODE
 70
     2
  9
$PDSIZE
 40
1.0
  9
$PLINEWID
 40
0.0
  9
$SPLFRAME
 70
     0
  9
$SPLINETYPE
 70
     6
  9
$SPLINESEGS
 70
     8
  9
$HANDSEED
  5
26A
  9
$SURFTAB1
 70
     6
  9
$SURFTAB2
 70
     6
  9
$SURFTYPE
 70
     6
  9
$SURFU
 70
     6
  9
$SURFV
 70
     6
  9
$UCSBASE
  2

  9
$UCSNAME
  2

  9
$UCSORG
 10
0.0
 20
0.0
 30
0.0
  9
$UCSXDIR
 10
1.0
 20
0.0
 30
0.0
  9
$UCSYDIR
 10
0.0
 20
1.0
 30
0.0
  9
$UCSORTHOREF
  2

  9
$UCSORTHOVIEW
 70
     0
  9
$UCSORGTOP
 10
0.0
 20
0.0
 30
0.0
  9
$UCSORGBOTTOM
 10
0.0
 20
0.0
 30
0.0
  9
$UCSORGLEFT
 10
0.0
 20
0.0
 30
0.0
  9
$UCSORGRIGHT
 10
0.0
 20
0.0
 30
0.0
  9
$UCSORGFRONT
 10
0.0
 20
0.0
 30
0.0
  9
$UCSORGBACK
 10
0.0
 20
0.0
 30
0.0
  9
$PUCSBASE
  2

  9
$PUCSNAME
  2

  9
$PUCSORG
 10
0.0
 20
0.0
 30
0.0
  9
$PUCSXDIR
 10
1.0
 20
0.0
 30
0.0
  9
$PUCSYDIR
 10
0.0
 20
1.0
 30
0.0
  9
$PUCSORTHOREF
  2

  9
$PUCSORTHOVIEW
 70
     0
  9
$PUCSORGTOP
 10
0.0
 20
0.0
 30
0.0
  9
$PUCSORGBOTTOM
 10
0.0
 20
0.0
 30
0.0
  9
$PUCSORGLEFT
 10
0.0
 20
0.0
 30
0.0
  9
$PUCSORGRIGHT
 10
0.0
 20
0.0
 30
0.0
  9
$PUCSORGFRONT
 10
0.0
 20
0.0
 30
0.0
  9
$PUCSORGBACK
 10
0.0
 20
0.0
 30
0.0
  9
$USERI1
 70
     0
  9
$USERI2
 70
     0
  9
$USERI3
 70
     0
  9
$USERI4
 70
     0
  9
$USERI5
 70
     0
  9
$USERR1
 40
0.0
  9
$USERR2
 40
0.0
  9
$USERR3
 40
0.0
  9
$USERR4
 40
0.0
  9
$USERR5
 40
0.0
  9
$WORLDVIEW
 70
     1
  9
$SHADEDGE
 70
     3
  9
$SHADEDIF
 70
    70
  9
$TILEMODE
 70
     1
  9
$MAXACTVP
 70
    64
  9
$PINSBASE
 10
0.0
 20
0.0
 30
0.0
  9
$PLIMCHECK
 70
     0
  9
$PEXTMIN
 10
1.000000000000E+20
 20
1.000000000000E+20
 30
1.000000000000E+20
  9
$PEXTMAX
 10
-1.000000000000E+20
 20
-1.000000000000E+20
 30
-1.000000000000E+20
  9
$PLIMMIN
 10
0.0
 20
0.0
  9
$PLIMMAX
 10
420.0
 20
297.0
  9
$UNITMODE
 70
     0
  9
$VISRETAIN
 70
     1
  9
$PLINEGEN
 70
     0
  9
$PSLTSCALE
 70
     1
  9
$TREEDEPTH
 70
  3020
  9
$CMLSTYLE
  2
Standard
  9
$CMLJUST
 70
     0
  9
$CMLSCALE
 40
20.0
  9
$PROXYGRAPHICS
 70
     1
  9
$MEASUREMENT
 70
     1
  9
$CELWEIGHT
370
    -1
  9
$ENDCAPS
280
     0
  9
$JOINSTYLE
280
     0
  9
$LWDISPLAY
290
     0
  9
$INSUNITS
 70
     4
  9
$HYPERLINKBASE
  1

  9
$STYLESHEET
  1

  9
$XEDIT
290
     1
  9
$CEPSNTYPE
380
     0
  9
$PSTYLEMODE
290
     1
  9
$FINGERPRINTGUID
  2
{7b1ced66-bc17-48db-ab99-06dd182ec7fe}
  9
$VERSIONGUID
  2
{FAEB1C32-E019-11D5-929B-00C0DF256EC4}
  9
$EXTNAMES
290
     1
  9
$PSVPSCALE
 40
0.0
  9
$OLESTARTUP
290
     0
  0
ENDSEC
  0
SECTION
  2
CLASSES
  0
CLASS
  1
ACDBDICTIONARYWDFLT
  2
AcDbDictionaryWithDefault
  3
ObjectDBX Classes
 90
        0
280
     0
281
     0
  0
CLASS
  1
VISUALSTYLE
  2
AcDbVisualStyle
  3
ObjectDBX Classes
 90
     4095
280
     0
281
     0
  0
CLASS
  1
MATERIAL
  2
AcDbMaterial
  3
ObjectDBX Classes
 90
     1153
280
     0
281
     0
  0
CLASS
  1
SCALE
  2
AcDbScale
  3
ObjectDBX Classes
 90
     1153
280
     0
281
     0
  0
CLASS
  1
TABLESTYLE
  2
AcDbTableStyle
  3
ObjectDBX Classes
 90
     4095
280
     0
281
     0
  0
CLASS
  1
MLEADERSTYLE
  2
AcDbMLeaderStyle
  3
ACDB_MLEADERSTYLE_CLASS
 90
     4095
280
     0
281
     0
  0
CLASS
  1
SUN
  2
AcDbSun
  3
SCENEOE
 90
     1153
280
     0
281
     0
  0
CLASS
  1
WIPEOUT
  2
AcDbWipeout
  3
WipeOut|AutoCAD Express Tool|expresstools@autodesk.com
 90
      127
280
     0
281
     1
  0
CLASS
  1
DICTIONARYVAR
  2
AcDbDictionaryVar
  3
ObjectDBX Classes
 90
        0
280
     0
281
     0
  0
CLASS
  1
WIPEOUTVARIABLES
  2
AcDbWipeoutVariables
  3
WipeOut|AutoCAD Express Tool|expresstools@autodesk.com
 90
        0
280
     0
281
     0
  0
CLASS
  1
ACDBPLACEHOLDER
  2
AcDbPlaceHolder
  3
ObjectDBX Classes
 90
        0
280
     0
281
     0
  0
CLASS
  1
LAYOUT
  2
AcDbLayout
  3
ObjectDBX Classes
 90
        0
280
     0
281
     0
  0
ENDSEC
  0
SECTION
  2
TABLES
  0
TABLE
  2
VPORT
  5
8
102
{ACAD_XDICTIONARY
360
22C
102
}
330
0
100
AcDbSymbolTable
 70
     1
  0
VPORT
  5
29
330
8
100
AcDbSymbolTableRecord
100
AcDbViewportTableRecord
  2
*Active
 70
     0
 10
0.0
 20
0.0
 11
1.0
 21
1.0
 12
191.453790480652
 22
86.846988815036
 13
0.0
 23
0.0
 14
10.0
 24
10.0
 15
10.0
 25
10.0
 16
0.0
 26
0.0
 36
1.0
 17
0.0
 27
0.0
 37
0.0
 40
462.0
 41
2.507523229526
 42
50.0
 43
0.0
 44
0.0
 50
0.0
 51
0.0
 71
     0
 72
   100
 73
     1
 74
     3
 75
     0
 76
     0
 77
     0
 78
     0
281
     0
 65
     1
110
0.0
120
0.0
130
0.0
111
1.0
121
0.0
131
0.0
112
0.0
122
1.0
132
0.0
 79
     0
146
0.0
  0
ENDTAB
  0
TABLE
  2
LTYPE
  5
5
330
0
100
AcDbSymbolTable
 70
     4
  0
LTYPE
  5
14
330
5
100
AcDbSymbolTableRecord
100
AcDbLinetypeTableRecord
  2
ByBlock
 70
     0
  3

 72
    65
 73
     0
 40
0.0
  0
LTYPE
  5
15
330
5
100
AcDbSymbolTableRecord
100
AcDbLinetypeTableRecord
  2
ByLayer
 70
     0
  3

 72
    65
 73
     0
 40
0.0
  0
LTYPE
  5
16
330
5
100
AcDbSymbolTableRecord
100
AcDbLinetypeTableRecord
  2
Continuous
 70
     0
  3
Solid line
 72
    65
 73
     0
 40
0.0
  0
LTYPE
  5
5E
330
5
100
AcDbSymbolTableRecord
100
AcDbLinetypeTableRecord
  2
AUSGEZOGEN
 70
     0
  3

 72
    65
 73
     0
 40
0.0
  0
LTYPE
  5
5F
330
5
100
AcDbSymbolTableRecord
100
AcDbLinetypeTableRecord
  2
DASHDOT
 70
     0
  3

 72
    65
 73
     4
 40
1.0
 49
0.5
 74
     0
 49
-0.25
 74
     0
 49
0.0
 74
     0
 49
-0.25
 74
     0
  0
LTYPE
  5
60
330
5
100
AcDbSymbolTableRecord
100
AcDbLinetypeTableRecord
  2
DASHED2
 70
     0
  3

 72
    65
 73
     2
 40
0.375
 49
0.25
 74
     0
 49
-0.125
 74
     0
  0
ENDTAB
  0
TABLE
  2
LAYER
  5
2
330
0
100
AcDbSymbolTable
 70
     8
  0
LAYER
  5
10
330
2
100
AcDbSymbolTableRecord
100
AcDbLayerTableRecord
  2
0
 70
     0
 62
     7
  6
Continuous
370
    -3
390
F
  0
LAYER
  5
63
330
2
100
AcDbSymbolTableRecord
100
AcDbLayerTableRecord
  2
KONTUREN
 70
     0
 62
     7
  6
Continuous
370
    -3
390
F
  0
LAYER
  5
64
330
2
100
AcDbSymbolTableRecord
100
AcDbLayerTableRecord
  2
BEMASS
 70
     0
 62
     1
  6
Continuous
370
    -3
390
F
  0
LAYER
  5
65
330
2
100
AcDbSymbolTableRecord
100
AcDbLayerTableRecord
  2
MITTEL
 70
     0
 62
     1
  6
Continuous
370
    -3
390
F
  0
LAYER
  5
66
330
2
100
AcDbSymbolTableRecord
100
AcDbLayerTableRecord
  2
VERDECKT
 70
     0
 62
     5
  6
Continuous
370
    -3
390
F
  0
LAYER
  5
67
330
2
100
AcDbSymbolTableRecord
100
AcDbLayerTableRecord
  2
RAHMEN
 70
     0
 62
    18
  6
Continuous
370
    -3
390
F
  0
LAYER
  5
68
330
2
100
AcDbSymbolTableRecord
100
AcDbLayerTableRecord
  2
RAHMENSCHRIFT
 70
     0
 62
     1
  6
Continuous
370
    -3
390
F
  0
LAYER
  5
69
330
2
100
AcDbSymbolTableRecord
100
AcDbLayerTableRecord
  2
Layer11
 70
     0
 62
    18
  6
Continuous
370
    -3
390
F
  0
ENDTAB
  0
TABLE
  2
STYLE
  5
3
330
0
100
AcDbSymbolTable
 70
     3
  0
STYLE
  5
11
330
3
100
AcDbSymbolTableRecord
100
AcDbTextStyleTableRecord
  2
Standard
 70
     0
 40
0.0
 41
1.0
 50
0.0
 71
     0
 42
2.5
  3
txt
  4

  0
STYLE
  5
61
330
3
100
AcDbSymbolTableRecord
100
AcDbTextStyleTableRecord
  2
Arial
 70
     0
 40
0.0
 41
1.0
 50
0.0
 71
     0
 42
2.5
  3
arial.ttf
  4

1001
ACAD
1000
Arial
1071
       34
  0
STYLE
  5
62
330
3
100
AcDbSymbolTableRecord
100
AcDbTextStyleTableRecord
  2
Toleranzfont
 70
     0
 40
0.0
 41
1.0
 50
0.0
 71
     0
 42
2.5
  3
IGES1003.SHX
  4

  0
ENDTAB
  0
TABLE
  2
VIEW
  5
6
330
0
100
AcDbSymbolTable
 70
     0
  0
ENDTAB
  0
TABLE
  2
UCS
  5
7
330
0
100
AcDbSymbolTable
 70
     0
  0
ENDTAB
  0
TABLE
  2
APPID
  5
9
330
0
100
AcDbSymbolTable
 70
     2
  0
APPID
  5
12
330
9
100
AcDbSymbolTableRecord
100
AcDbRegAppTableRecord
  2
ACAD
 70
     0
  0
APPID
  5
266
330
9
100
AcDbSymbolTableRecord
100
AcDbRegAppTableRecord
  2
ACAD_MLEADERVER
 70
     0
  0
ENDTAB
  0
TABLE
  2
DIMSTYLE
  5
A
330
0
100
AcDbSymbolTable
 70
     1
100
AcDbDimStyleTable
  0
DIMSTYLE
105
27
102
{ACAD_REACTORS
330
CA
330
D4
330
E5
330
EF
330
F9
330
103
330
10D
330
115
330
11F
330
1FF
330
20D
330
217
102
}
330
A
100
AcDbSymbolTableRecord
100
AcDbDimStyleTableRecord
  2
ISO-25
 70
     0
 41
2.5
 42
0.625
 43
3.75
 44
1.25
 73
     0
 74
     0
 77
     1
 78
     8
140
2.5
141
2.5
143
0.03937007874
147
0.625
171
     3
172
     1
178
     0
271
     2
272
     2
274
     3
278
    44
283
     0
284
     8
340
11
  0
ENDTAB
  0
TABLE
  2
BLOCK_RECORD
  5
1
330
0
100
AcDbSymbolTable
 70
    15
  0
BLOCK_RECORD
  5
1F
330
1
100
AcDbSymbolTableRecord
100
AcDbBlockTableRecord
  2
*Model_Space
340
22
  0
BLOCK_RECORD
  5
1B
330
1
100
AcDbSymbolTableRecord
100
AcDbBlockTableRecord
  2
*Paper_Space
340
1E
  0
BLOCK_RECORD
  5
23
330
1
100
AcDbSymbolTableRecord
100
AcDbBlockTableRecord
  2
*Paper_Space0
340
26
  0
BLOCK_RECORD
  5
BF
330
1
100
AcDbSymbolTableRecord
100
AcDbBlockTableRecord
  2
*D1
340
0
  0
BLOCK_RECORD
  5
CB
330
1
100
AcDbSymbolTableRecord
100
AcDbBlockTableRecord
  2
*D2
340
0
  0
BLOCK_RECORD
  5
D5
330
1
100
AcDbSymbolTableRecord
100
AcDbBlockTableRecord
  2
DimBlk_nNn02
340
0
102
{BLKREFS
331
DB
102
}
  0
BLOCK_RECORD
  5
DC
330
1
100
AcDbSymbolTableRecord
100
AcDbBlockTableRecord
  2
*D4
340
0
  0
BLOCK_RECORD
  5
E6
330
1
100
AcDbSymbolTableRecord
100
AcDbBlockTableRecord
  2
*D5
340
0
  0
BLOCK_RECORD
  5
F0
330
1
100
AcDbSymbolTableRecord
100
AcDbBlockTableRecord
  2
*D6
340
0
  0
BLOCK_RECORD
  5
FA
330
1
100
AcDbSymbolTableRecord
100
AcDbBlockTableRecord
  2
*D7
340
0
  0
BLOCK_RECORD
  5
104
330
1
100
AcDbSymbolTableRecord
100
AcDbBlockTableRecord
  2
*D8
340
0
  0
BLOCK_RECORD
  5
10E
330
1
100
AcDbSymbolTableRecord
100
AcDbBlockTableRecord
  2
*D9
340
0
  0
BLOCK_RECORD
  5
116
330
1
100
AcDbSymbolTableRecord
100
AcDbBlockTableRecord
  2
*D10
340
0
  0
BLOCK_RECORD
  5
1F2
330
1
100
AcDbSymbolTableRecord
100
AcDbBlockTableRecord
  2
*D11
340
0
  0
BLOCK_RECORD
  5
204
330
1
100
AcDbSymbolTableRecord
100
AcDbBlockTableRecord
  2
*D12
340
0
  0
BLOCK_RECORD
  5
20E
330
1
100
AcDbSymbolTableRecord
100
AcDbBlockTableRecord
  2
*D13
340
0
  0
BLOCK_RECORD
  5
218
330
1
100
AcDbSymbolTableRecord
100
AcDbBlockTableRecord
  2
DimBlk_nNn013
340
0
102
{BLKREFS
331
21E
102
}
  0
ENDTAB
  0
ENDSEC
  0
SECTION
  2
BLOCKS
  0
BLOCK
  5
20
330
1F
100
AcDbEntity
  8
0
100
AcDbBlockBegin
  2
*Model_Space
 70
     0
 10
0.0
 20
0.0
 30
0.0
  3
*Model_Space
  1

  0
ENDBLK
  5
21
330
1F
100
AcDbEntity
  8
0
100
AcDbBlockEnd
  0
BLOCK
  5
1C
330
1B
100
AcDbEntity
 67
     1
  8
0
100
AcDbBlockBegin
  2
*Paper_Space
 70
     0
 10
0.0
 20
0.0
 30
0.0
  3
*Paper_Space
  1

  0
ENDBLK
  5
1D
330
1B
100
AcDbEntity
 67
     1
  8
0
100
AcDbBlockEnd
  0
BLOCK
  5
24
330
23
100
AcDbEntity
  8
0
100
AcDbBlockBegin
  2
*Paper_Space0
 70
     0
 10
0.0
 20
0.0
 30
0.0
  3
*Paper_Space0
  1

  0
ENDBLK
  5
25
330
23
100
AcDbEntity
  8
0
100
AcDbBlockEnd
  0
BLOCK
  5
C0
330
BF
100
AcDbEntity
  8
0
100
AcDbBlockBegin
  2
*D1
 70
     1
 10
0.0
 20
0.0
 30
0.0
  3
*D1
  1

  0
HATCH
  5
C2
330
BF
100
AcDbEntity
  8
BEMASS
  6
AUSGEZOGEN
 62
     1
370
    18
100
AcDbHatch
 10
0.0
 20
0.0
 30
0.0
210
0.0
220
0.0
230
1.0
  2
SOLID
 70
     1
 71
     0
 91
        1
 92
        2
 72
     0
 73
     1
 93
        3
 10
235.7466215451376
 20
235.6248505340568
 10
232.5716215928213
 20
236.2598505245201
 10
232.5716215928213
 20
234.9898505435935
 97
        0
 75
     0
 76
     1
 98
        0
  0
HATCH
  5
C3
330
BF
100
AcDbEntity
  8
BEMASS
  6
AUSGEZOGEN
 62
     1
370
    18
100
AcDbHatch
 10
0.0
 20
0.0
 30
0.0
210
0.0
220
0.0
230
1.0
  2
SOLID
 70
     1
 71
     0
 91
        1
 92
        2
 72
     0
 73
     1
 93
        3
 10
238.7466215451376
 20
235.6248505340568
 10
241.9216214974539
 20
234.9898505435935
 10
241.9216214974539
 20
236.2598505245201
 97
        0
 75
     0
 76
     1
 98
        0
  0
LINE
  5
C4
330
BF
100
AcDbEntity
  8
BEMASS
  6
AUSGEZOGEN
 62
     1
370
    18
100
AcDbLine
 10
238.746621545138
 20
235.624850534057
 30
0.0
 11
235.746621545138
 21
235.624850534057
 31
0.0
  0
LINE
  5
C5
330
BF
100
AcDbEntity
  8
BEMASS
  6
AUSGEZOGEN
 62
     1
370
    18
100
AcDbLine
 10
232.571621592821
 20
235.624850534057
 30
0.0
 11
229.396621640505
 21
235.624850534057
 31
0.0
  0
LINE
  5
C6
330
BF
100
AcDbEntity
  8
BEMASS
  6
AUSGEZOGEN
 62
     1
370
    18
100
AcDbLine
 10
241.921621497454
 20
235.624850534057
 30
0.0
 11
245.09662144977
 21
235.624850534057
 31
0.0
  0
LINE
  5
C7
330
BF
100
AcDbEntity
  8
BEMASS
  6
AUSGEZOGEN
 62
     1
370
    18
100
AcDbLine
 10
238.746621545138
 20
229.088300700202
 30
0.0
 11
238.746621545138
 21
237.439136221095
 31
0.0
  0
LINE
  5
C8
330
BF
100
AcDbEntity
  8
BEMASS
  6
AUSGEZOGEN
 62
     1
370
    18
100
AcDbLine
 10
235.746621545138
 20
229.088300700202
 30
0.0
 11
235.746621545138
 21
237.439136221095
 31
0.0
  0
TEXT
  5
C9
330
BF
100
AcDbEntity
  8
BEMASS
  6
AUSGEZOGEN
 62
     1
370
    18
100
AcDbText
 10
236.446521557154
 20
236.224850534057
 30
0.0
 40
3.174999952316
  1
3
 41
0.649484536082
  7
Arial
 72
     5
 11
238.046721533121
 21
236.224850534057
 31
0.0
100
AcDbText
  0
ENDBLK
  5
C1
330
BF
100
AcDbEntity
  8
0
100
AcDbBlockEnd
  0
BLOCK
  5
CC
330
CB
100
AcDbEntity
  8
0
100
AcDbBlockBegin
  2
*D2
 70
     1
 10
0.0
 20
0.0
 30
0.0
  3
*D2
  1

  0
HATCH
  5
CE
330
CB
100
AcDbEntity
  8
BEMASS
  6
AUSGEZOGEN
 62
     1
370
    18
100
AcDbHatch
 10
0.0
 20
0.0
 30
0.0
210
0.0
220
0.0
230
1.0
  2
SOLID
 70
     1
 71
     0
 91
        1
 92
        2
 72
     0
 73
     1
 93
        3
 10
147.68
 20
188.8
 10
147.0450000095367
 20
185.6250000476837
 10
148.3149999904633
 20
185.6250000476837
 97
        0
 75
     0
 76
     1
 98
        0
  0
HATCH
  5
CF
330
CB
100
AcDbEntity
  8
BEMASS
  6
AUSGEZOGEN
 62
     1
370
    18
100
AcDbHatch
 10
0.0
 20
0.0
 30
0.0
210
0.0
220
0.0
230
1.0
  2
SOLID
 70
     1
 71
     0
 91
        1
 92
        2
 72
     0
 73
     1
 93
        3
 10
147.68
 20
33.8
 10
148.3149999904633
 20
36.97499995231628
 10
147.0450000095367
 20
36.97499995231628
 97
        0
 75
     0
 76
     1
 98
        0
  0
LINE
  5
D0
330
CB
100
AcDbEntity
  8
BEMASS
  6
AUSGEZOGEN
 62
     1
370
    18
100
AcDbLine
 10
147.68
 20
36.974999952316
 30
0.0
 11
147.68
 21
185.625000047684
 31
0.0
  0
LINE
  5
D1
330
CB
100
AcDbEntity
  8
BEMASS
  6
AUSGEZOGEN
 62
     1
370
    18
100
AcDbLine
 10
161.401506505606
 20
33.8
 30
0.0
 11
145.865714312962
 21
33.8
 31
0.0
  0
LINE
  5
D2
330
CB
100
AcDbEntity
  8
BEMASS
  6
AUSGEZOGEN
 62
     1
370
    18
100
AcDbLine
 10
161.401506505606
 20
188.8
 30
0.0
 11
145.865714312962
 21
188.8
 31
0.0
  0
TEXT
  5
D3
330
CB
100
AcDbEntity
  8
BEMASS
  6
AUSGEZOGEN
 62
     1
370
    18
100
AcDbText
 10
147.08
 20
108.582200040817
 30
0.0
 40
3.174999952316
  1
155
 50
90.0
 41
0.735395189003
  7
Arial
 72
     5
 11
147.08
 21
114.017799959183
 31
0.0
100
AcDbText
  0
ENDBLK
  5
CD
330
CB
100
AcDbEntity
  8
0
100
AcDbBlockEnd
  0
BLOCK
  5
D6
330
D5
100
AcDbEntity
  8
0
100
AcDbBlockBegin
  2
DimBlk_nNn02
 70
     0
 10
0.0
 20
0.0
 30
0.0
  3
DimBlk_nNn02
  1

  0
HATCH
  5
D8
330
D5
100
AcDbEntity
  8
BEMASS
  6
AUSGEZOGEN
 62
     1
370
    18
100
AcDbHatch
 10
0.0
 20
0.0
 30
0.0
210
0.0
220
0.0
230
1.0
  2
SOLID
 70
     1
 71
     0
 91
        1
 92
        2
 72
     0
 73
     1
 93
        3
 10
171.8157200679794
 20
189.3857864376269
 10
170.0196688707395
 20
192.0798632334867
 10
169.1216432721196
 20
191.1818376348668
 97
        0
 75
     0
 76
     1
 98
        0
  0
LINE
  5
D9
330
D5
100
AcDbEntity
  8
BEMASS
  6
AUSGEZOGEN
 62
     1
370
    18
100
AcDbLine
 10
169.57065607143
 20
191.630850434177
 30
0.0
 11
163.905201397054
 21
197.296305108553
 31
0.0
  0
TEXT
  5
DA
330
D5
100
AcDbEntity
  8
BEMASS
  6
AUSGEZOGEN
 62
     1
370
    18
100
AcDbText
 10
164.441718665593
 20
197.608315977437
 30
0.0
 40
3.174999952316
  1
R2
 50
315.0
 41
0.706278026906
  7
Arial
 72
     5
 11
167.270499301246
 21
194.779535341784
 31
0.0
100
AcDbText
  0
ENDBLK
  5
D7
330
D5
100
AcDbEntity
  8
0
100
AcDbBlockEnd
  0
BLOCK
  5
DD
330
DC
100
AcDbEntity
  8
0
100
AcDbBlockBegin
  2
*D4
 70
     1
 10
0.0
 20
0.0
 30
0.0
  3
*D4
  1

  0
HATCH
  5
DF
330
DC
100
AcDbEntity
  8
BEMASS
  6
AUSGEZOGEN
 62
     1
370
    18
100
AcDbHatch
 10
0.0
 20
0.0
 30
0.0
210
0.0
220
0.0
230
1.0
  2
SOLID
 70
     1
 71
     0
 91
        1
 92
        2
 72
     0
 73
     1
 93
        3
 10
190.4015065056063
 20
184.2233444046149
 10
187.22650655329
 20
184.8583443950781
 10
187.22650655329
 20
183.5883444141516
 97
        0
 75
     0
 76
     1
 98
        0
  0
HATCH
  5
E0
330
DC
100
AcDbEntity
  8
BEMASS
  6
AUSGEZOGEN
 62
     1
370
    18
100
AcDbHatch
 10
0.0
 20
0.0
 30
0.0
210
0.0
220
0.0
230
1.0
  2
SOLID
 70
     1
 71
     0
 91
        1
 92
        2
 72
     0
 73
     1
 93
        3
 10
176.9015065056063
 20
184.2233444046149
 10
180.0765064579226
 20
183.5883444141516
 10
180.0765064579226
 20
184.8583443950781
 97
        0
 75
     0
 76
     1
 98
        0
  0
LINE
  5
E1
330
DC
100
AcDbEntity
  8
BEMASS
  6
AUSGEZOGEN
 62
     1
370
    18
100
AcDbLine
 10
180.076506457923
 20
184.223344404615
 30
0.0
 11
187.22650655329
 21
184.223344404615
 31
0.0
  0
LINE
  5
E2
330
DC
100
AcDbEntity
  8
BEMASS
  6
AUSGEZOGEN
 62
     1
370
    18
100
AcDbLine
 10
176.901506505606
 20
174.3
 30
0.0
 11
176.901506505606
 21
186.037630091653
 31
0.0
  0
LINE
  5
E3
330
DC
100
AcDbEntity
  8
BEMASS
  6
AUSGEZOGEN
 62
     1
370
    18
100
AcDbLine
 10
190.401506505606
 20
174.3
 30
0.0
 11
190.401506505606
 21
186.037630091653
 31
0.0
  0
TEXT
  5
E4
330
DC
100
AcDbEntity
  8
BEMASS
  6
AUSGEZOGEN
 62
     1
370
    18
100
AcDbText
 10
180.374906554816
 20
184.823344404615
 30
0.0
 40
3.174999952316
  1
13.5
 41
0.759941089838
  7
Arial
 72
     5
 11
186.928106456397
 21
184.823344404615
 31
0.0
100
AcDbText
  0
ENDBLK
  5
DE
330
DC
100
AcDbEntity
  8
0
100
AcDbBlockEnd
  0
BLOCK
  5
E7
330
E6
100
AcDbEntity
  8
0
100
AcDbBlockBegin
  2
*D5
 70
     1
 10
0.0
 20
0.0
 30
0.0
  3
*D5
  1

  0
HATCH
  5
E9
330
E6
100
AcDbEntity
  8
BEMASS
  6
AUSGEZOGEN
 62
     1
370
    18
100
AcDbHatch
 10
0.0
 20
0.0
 30
0.0
210
0.0
220
0.0
230
1.0
  2
SOLID
 70
     1
 71
     0
 91
        1
 92
        2
 72
     0
 73
     1
 93
        3
 10
207.2189759387158
 20
126.3
 10
207.8539759291791
 20
129.4749999523163
 10
206.5839759482525
 20
129.4749999523163
 97
        0
 75
     0
 76
     1
 98
        0
  0
HATCH
  5
EA
330
E6
100
AcDbEntity
  8
BEMASS
  6
AUSGEZOGEN
 62
     1
370
    18
100
AcDbHatch
 10
0.0
 20
0.0
 30
0.0
210
0.0
220
0.0
230
1.0
  2
SOLID
 70
     1
 71
     0
 91
        1
 92
        2
 72
     0
 73
     1
 93
        3
 10
207.2189759387158
 20
176.3
 10
206.5839759482525
 20
173.1250000476837
 10
207.8539759291791
 20
173.1250000476837
 97
        0
 75
     0
 76
     1
 98
        0
  0
LINE
  5
EB
330
E6
100
AcDbEntity
  8
BEMASS
  6
AUSGEZOGEN
 62
     1
370
    18
100
AcDbLine
 10
207.218975938716
 20
173.125000047684
 30
0.0
 11
207.218975938716
 21
129.474999952316
 31
0.0
  0
LINE
  5
EC
330
E6
100
AcDbEntity
  8
BEMASS
  6
AUSGEZOGEN
 62
     1
370
    18
100
AcDbLine
 10
188.401506505606
 20
176.3
 30
0.0
 11
209.033261625754
 21
176.3
 31
0.0
  0
LINE
  5
ED
330
E6
100
AcDbEntity
  8
BEMASS
  6
AUSGEZOGEN
 62
     1
370
    18
100
AcDbLine
 10
188.401506505606
 20
126.3
 30
0.0
 11
209.033261625754
 21
126.3
 31
0.0
  0
TEXT
  5
EE
330
E6
100
AcDbEntity
  8
BEMASS
  6
AUSGEZOGEN
 62
     1
370
    18
100
AcDbText
 10
206.618975938716
 20
149.541050026417
 30
0.0
 40
3.174999952316
  1
50
 50
90.0
 41
0.713917525773
  7
Arial
 72
     5
 11
206.618975938716
 21
153.058949973583
 31
0.0
100
AcDbText
  0
ENDBLK
  5
E8
330
E6
100
AcDbEntity
  8
0
100
AcDbBlockEnd
  0
BLOCK
  5
F1
330
F0
100
AcDbEntity
  8
0
100
AcDbBlockBegin
  2
*D6
 70
     1
 10
0.0
 20
0.0
 30
0.0
  3
*D6
  1

  0
HATCH
  5
F3
330
F0
100
AcDbEntity
  8
BEMASS
  6
AUSGEZOGEN
 62
     1
370
    18
100
AcDbHatch
 10
0.0
 20
0.0
 30
0.0
210
0.0
220
0.0
230
1.0
  2
SOLID
 70
     1
 71
     0
 91
        1
 92
        2
 72
     0
 73
     1
 93
        3
 10
207.2189759387158
 20
96.3
 10
207.8539759291791
 20
99.47499995231628
 10
206.5839759482525
 20
99.47499995231628
 97
        0
 75
     0
 76
     1
 98
        0
  0
HATCH
  5
F4
330
F0
100
AcDbEntity
  8
BEMASS
  6
AUSGEZOGEN
 62
     1
370
    18
100
AcDbHatch
 10
0.0
 20
0.0
 30
0.0
210
0.0
220
0.0
230
1.0
  2
SOLID
 70
     1
 71
     0
 91
        1
 92
        2
 72
     0
 73
     1
 93
        3
 10
207.2189759387158
 20
126.3
 10
206.5839759482525
 20
123.1250000476837
 10
207.8539759291791
 20
123.1250000476837
 97
        0
 75
     0
 76
     1
 98
        0
  0
LINE
  5
F5
330
F0
100
AcDbEntity
  8
BEMASS
  6
AUSGEZOGEN
 62
     1
370
    18
100
AcDbLine
 10
207.218975938716
 20
123.125000047684
 30
0.0
 11
207.218975938716
 21
99.474999952316
 31
0.0
  0
LINE
  5
F6
330
F0
100
AcDbEntity
  8
BEMASS
  6
AUSGEZOGEN
 62
     1
370
    18
100
AcDbLine
 10
188.401506505606
 20
126.3
 30
0.0
 11
209.033261625754
 21
126.3
 31
0.0
  0
LINE
  5
F7
330
F0
100
AcDbEntity
  8
BEMASS
  6
AUSGEZOGEN
 62
     1
370
    18
100
AcDbLine
 10
188.401506505606
 20
96.3
 30
0.0
 11
209.033261625754
 21
96.3
 31
0.0
  0
TEXT
  5
F8
330
F0
100
AcDbEntity
  8
BEMASS
  6
AUSGEZOGEN
 62
     1
370
    18
100
AcDbText
 10
206.618975938716
 20
109.541050026417
 30
0.0
 40
3.174999952316
  1
30
 50
90.0
 41
0.713917525773
  7
Arial
 72
     5
 11
206.618975938716
 21
113.058949973583
 31
0.0
100
AcDbText
  0
ENDBLK
  5
F2
330
F0
100
AcDbEntity
  8
0
100
AcDbBlockEnd
  0
BLOCK
  5
FB
330
FA
100
AcDbEntity
  8
0
100
AcDbBlockBegin
  2
*D7
 70
     1
 10
0.0
 20
0.0
 30
0.0
  3
*D7
  1

  0
HATCH
  5
FD
330
FA
100
AcDbEntity
  8
BEMASS
  6
AUSGEZOGEN
 62
     1
370
    18
100
AcDbHatch
 10
0.0
 20
0.0
 30
0.0
210
0.0
220
0.0
230
1.0
  2
SOLID
 70
     1
 71
     0
 91
        1
 92
        2
 72
     0
 73
     1
 93
        3
 10
207.2189759387158
 20
46.3
 10
207.8539759291791
 20
49.47499995231628
 10
206.5839759482525
 20
49.47499995231628
 97
        0
 75
     0
 76
     1
 98
        0
  0
HATCH
  5
FE
330
FA
100
AcDbEntity
  8
BEMASS
  6
AUSGEZOGEN
 62
     1
370
    18
100
AcDbHatch
 10
0.0
 20
0.0
 30
0.0
210
0.0
220
0.0
230
1.0
  2
SOLID
 70
     1
 71
     0
 91
        1
 92
        2
 72
     0
 73
     1
 93
        3
 10
207.2189759387158
 20
96.3
 10
206.5839759482525
 20
93.12500004768371
 10
207.8539759291791
 20
93.12500004768371
 97
        0
 75
     0
 76
     1
 98
        0
  0
LINE
  5
FF
330
FA
100
AcDbEntity
  8
BEMASS
  6
AUSGEZOGEN
 62
     1
370
    18
100
AcDbLine
 10
207.218975938716
 20
93.125000047684
 30
0.0
 11
207.218975938716
 21
49.474999952316
 31
0.0
  0
LINE
  5
100
330
FA
100
AcDbEntity
  8
BEMASS
  6
AUSGEZOGEN
 62
     1
370
    18
100
AcDbLine
 10
188.401506505606
 20
96.3
 30
0.0
 11
209.033261625754
 21
96.3
 31
0.0
  0
LINE
  5
101
330
FA
100
AcDbEntity
  8
BEMASS
  6
AUSGEZOGEN
 62
     1
370
    18
100
AcDbLine
 10
188.401506505606
 20
46.3
 30
0.0
 11
209.033261625754
 21
46.3
 31
0.0
  0
TEXT
  5
102
330
FA
100
AcDbEntity
  8
BEMASS
  6
AUSGEZOGEN
 62
     1
370
    18
100
AcDbText
 10
206.618975938716
 20
69.541050026417
 30
0.0
 40
3.174999952316
  1
50
 50
90.0
 41
0.713917525773
  7
Arial
 72
     5
 11
206.618975938716
 21
73.058949973583
 31
0.0
100
AcDbText
  0
ENDBLK
  5
FC
330
FA
100
AcDbEntity
  8
0
100
AcDbBlockEnd
  0
BLOCK
  5
105
330
104
100
AcDbEntity
  8
0
100
AcDbBlockBegin
  2
*D8
 70
     1
 10
0.0
 20
0.0
 30
0.0
  3
*D8
  1

  0
HATCH
  5
107
330
104
100
AcDbEntity
  8
BEMASS
  6
AUSGEZOGEN
 62
     1
370
    18
100
AcDbHatch
 10
0.0
 20
0.0
 30
0.0
210
0.0
220
0.0
230
1.0
  2
SOLID
 70
     1
 71
     0
 91
        1
 92
        2
 72
     0
 73
     1
 93
        3
 10
161.4015065056063
 20
122.7700940053273
 10
164.5765064579226
 20
122.135094014864
 10
164.5765064579226
 20
123.4050939957906
 97
        0
 75
     0
 76
     1
 98
        0
  0
HATCH
  5
108
330
104
100
AcDbEntity
  8
BEMASS
  6
AUSGEZOGEN
 62
     1
370
    18
100
AcDbHatch
 10
0.0
 20
0.0
 30
0.0
210
0.0
220
0.0
230
1.0
  2
SOLID
 70
     1
 71
     0
 91
        1
 92
        2
 72
     0
 73
     1
 93
        3
 10
178.4015065056063
 20
122.7700940053273
 10
175.22650655329
 20
123.4050939957906
 10
175.22650655329
 20
122.135094014864
 97
        0
 75
     0
 76
     1
 98
        0
  0
LINE
  5
109
330
104
100
AcDbEntity
  8
BEMASS
  6
AUSGEZOGEN
 62
     1
370
    18
100
AcDbLine
 10
175.22650655329
 20
122.770094005327
 30
0.0
 11
164.576506457923
 21
122.770094005327
 31
0.0
  0
LINE
  5
10A
330
104
100
AcDbEntity
  8
BEMASS
  6
AUSGEZOGEN
 62
     1
370
    18
100
AcDbLine
 10
178.401506505606
 20
145.3
 30
0.0
 11
178.401506505606
 21
120.955808318289
 31
0.0
  0
LINE
  5
10B
330
104
100
AcDbEntity
  8
BEMASS
  6
AUSGEZOGEN
 62
     1
370
    18
100
AcDbLine
 10
161.401506505606
 20
117.8
 30
0.0
 11
161.401506505606
 21
124.584379692365
 31
0.0
  0
TEXT
  5
10C
330
104
100
AcDbEntity
  8
BEMASS
  6
AUSGEZOGEN
 62
     1
370
    18
100
AcDbText
 10
168.142556532023
 20
123.370094005327
 30
0.0
 40
3.174999952316
  1
17
 41
0.713917525773
  7
Arial
 72
     5
 11
171.66045647919
 21
123.370094005327
 31
0.0
100
AcDbText
  0
ENDBLK
  5
106
330
104
100
AcDbEntity
  8
0
100
AcDbBlockEnd
  0
BLOCK
  5
10F
330
10E
100
AcDbEntity
  8
0
100
AcDbBlockBegin
  2
*D9
 70
     1
 10
0.0
 20
0.0
 30
0.0
  3
*D9
  1

  0
HATCH
  5
111
330
10E
100
AcDbEntity
  8
BEMASS
  6
AUSGEZOGEN
 62
     1
370
    18
100
AcDbHatch
 10
0.0
 20
0.0
 30
0.0
210
0.0
220
0.0
230
1.0
  2
SOLID
 70
     1
 71
     0
 91
        1
 92
        2
 72
     0
 73
     1
 93
        3
 10
161.4015065056063
 20
132.623803985025
 10
164.5765064579226
 20
131.9888039945617
 10
164.5765064579226
 20
133.2588039754883
 97
        0
 75
     0
 76
     1
 98
        0
  0
HATCH
  5
112
330
10E
100
AcDbEntity
  8
BEMASS
  6
AUSGEZOGEN
 62
     1
370
    18
100
AcDbHatch
 10
0.0
 20
0.0
 30
0.0
210
0.0
220
0.0
230
1.0
  2
SOLID
 70
     1
 71
     0
 91
        1
 92
        2
 72
     0
 73
     1
 93
        3
 10
176.9015065056063
 20
132.623803985025
 10
173.72650655329
 20
133.2588039754883
 10
173.72650655329
 20
131.9888039945617
 97
        0
 75
     0
 76
     1
 98
        0
  0
LINE
  5
113
330
10E
100
AcDbEntity
  8
BEMASS
  6
AUSGEZOGEN
 62
     1
370
    18
100
AcDbLine
 10
173.72650655329
 20
132.623803985025
 30
0.0
 11
164.576506457923
 21
132.623803985025
 31
0.0
  0
TEXT
  5
114
330
10E
100
AcDbEntity
  8
BEMASS
  6
AUSGEZOGEN
 62
     1
370
    18
100
AcDbText
 10
165.874906554816
 20
133.223803985025
 30
0.0
 40
3.174999952316
  1
15.5
 41
0.759941089838
  7
Arial
 72
     5
 11
172.428106456397
 21
133.223803985025
 31
0.0
100
AcDbText
  0
ENDBLK
  5
110
330
10E
100
AcDbEntity
  8
0
100
AcDbBlockEnd
  0
BLOCK
  5
117
330
116
100
AcDbEntity
  8
0
100
AcDbBlockBegin
  2
*D10
 70
     1
 10
0.0
 20
0.0
 30
0.0
  3
*D10
  1

  0
HATCH
  5
119
330
116
100
AcDbEntity
  8
BEMASS
  6
AUSGEZOGEN
 62
     1
370
    18
100
AcDbHatch
 10
0.0
 20
0.0
 30
0.0
210
0.0
220
0.0
230
1.0
  2
SOLID
 70
     1
 71
     0
 91
        1
 92
        2
 72
     0
 73
     1
 93
        3
 10
140.4969823062396
 20
-6.2
 10
141.1319822967028
 20
-3.025000047683716
 10
139.8619823157763
 20
-3.025000047683716
 97
        0
 75
     0
 76
     1
 98
        0
  0
HATCH
  5
11A
330
116
100
AcDbEntity
  8
BEMASS
  6
AUSGEZOGEN
 62
     1
370
    18
100
AcDbHatch
 10
0.0
 20
0.0
 30
0.0
210
0.0
220
0.0
230
1.0
  2
SOLID
 70
     1
 71
     0
 91
        1
 92
        2
 72
     0
 73
     1
 93
        3
 10
140.4969823062396
 20
228.8
 10
139.8619823157763
 20
225.6250000476837
 10
141.1319822967028
 20
225.6250000476837
 97
        0
 75
     0
 76
     1
 98
        0
  0
LINE
  5
11B
330
116
100
AcDbEntity
  8
BEMASS
  6
AUSGEZOGEN
 62
     1
370
    18
100
AcDbLine
 10
140.49698230624
 20
225.625000047684
 30
0.0
 11
140.49698230624
 21
-3.025000047684
 31
0.0
  0
LINE
  5
11C
330
116
100
AcDbEntity
  8
BEMASS
  6
AUSGEZOGEN
 62
     1
370
    18
100
AcDbLine
 10
184.401506505606
 20
228.8
 30
0.0
 11
138.682696619202
 21
228.8
 31
0.0
  0
LINE
  5
11D
330
116
100
AcDbEntity
  8
BEMASS
  6
AUSGEZOGEN
 62
     1
370
    18
100
AcDbLine
 10
184.401506505606
 20
-6.2
 30
0.0
 11
138.682696619202
 21
-6.2
 31
0.0
  0
TEXT
  5
11E
330
116
100
AcDbEntity
  8
BEMASS
  6
AUSGEZOGEN
 62
     1
370
    18
100
AcDbText
 10
139.89698230624
 20
108.582200040817
 30
0.0
 40
3.174999952316
  1
235
 50
90.0
 41
0.735395189003
  7
Arial
 72
     5
 11
139.89698230624
 21
114.017799959183
 31
0.0
100
AcDbText
  0
ENDBLK
  5
118
330
116
100
AcDbEntity
  8
0
100
AcDbBlockEnd
  0
BLOCK
  5
1F3
330
1F2
100
AcDbEntity
  8
0
100
AcDbBlockBegin
  2
*D11
 70
     1
 10
0.0
 20
0.0
 30
0.0
  3
*D11
  1

  0
HATCH
  5
1F5
330
1F2
100
AcDbEntity
  8
BEMASS
  6
AUSGEZOGEN
 62
     1
370
    18
100
AcDbHatch
 10
0.0
 20
0.0
 30
0.0
210
0.0
220
0.0
230
1.0
  2
SOLID
 70
     1
 71
     0
 91
        1
 92
        2
 72
     0
 73
     1
 93
        3
 10
162.6515065056062
 20
-48.34701074852612
 10
165.8265064579225
 20
-48.9820107389894
 10
165.8265064579225
 20
-47.71201075806289
 97
        0
 75
     0
 76
     1
 98
        0
  0
HATCH
  5
1F6
330
1F2
100
AcDbEntity
  8
BEMASS
  6
AUSGEZOGEN
 62
     1
370
    18
100
AcDbHatch
 10
0.0
 20
0.0
 30
0.0
210
0.0
220
0.0
230
1.0
  2
SOLID
 70
     1
 71
     0
 91
        1
 92
        2
 72
     0
 73
     1
 93
        3
 10
161.4015065056062
 20
-48.34701074852612
 10
158.2265065532899
 20
-47.71201075806284
 10
158.2265065532899
 20
-48.98201073898935
 97
        0
 75
     0
 76
     1
 98
        0
  0
LINE
  5
1F7
330
1F2
100
AcDbEntity
  8
BEMASS
  6
AUSGEZOGEN
 62
     1
370
    18
100
AcDbLine
 10
161.401506505606
 20
-48.347010748526
 30
0.0
 11
162.651506505606
 21
-48.347010748526
 31
0.0
  0
LINE
  5
1F8
330
1F2
100
AcDbEntity
  8
BEMASS
  6
AUSGEZOGEN
 62
     1
370
    18
100
AcDbLine
 10
165.826506457923
 20
-48.347010748526
 30
0.0
 11
169.001506410239
 21
-48.347010748526
 31
0.0
  0
LINE
  5
1F9
330
1F2
100
AcDbEntity
  8
BEMASS
  6
AUSGEZOGEN
 62
     1
370
    18
100
AcDbLine
 10
158.22650655329
 20
-48.347010748526
 30
0.0
 11
155.051506600974
 21
-48.347010748526
 31
0.0
  0
LINE
  5
1FA
330
1F2
100
AcDbEntity
  8
BEMASS
  6
AUSGEZOGEN
 62
     1
370
    18
100
AcDbLine
 10
158.22650655329
 20
-48.347010748526
 30
0.0
 11
145.080141245948
 21
-48.347010748526
 31
0.0
  0
LINE
  5
1FB
330
1F2
100
AcDbEntity
  8
BEMASS
  6
AUSGEZOGEN
 62
     1
370
    18
100
AcDbLine
 10
161.401506505606
 20
-39.438239170047
 30
0.0
 11
161.401506505606
 21
-50.161296435564
 31
0.0
  0
LINE
  5
1FC
330
1F2
100
AcDbEntity
  8
BEMASS
  6
AUSGEZOGEN
 62
     1
370
    18
100
AcDbLine
 10
162.651506505606
 20
-40.688239170047
 30
0.0
 11
162.651506505606
 21
-50.161296435564
 31
0.0
  0
TEXT
  5
1FD
330
1F2
100
AcDbEntity
  8
BEMASS
  6
AUSGEZOGEN
 62
     1
370
    18
100
AcDbText
 10
145.238891243564
 20
-47.621740288786
 30
0.0
 40
3.174999952316
  1
1.25
 50
0.0
 41
0.759941089838
  7
Arial
 72
     5
 11
151.792091145145
 21
-47.621740288786
 31
0.0
100
AcDbText
  0
TEXT
  5
1FE
330
1F2
100
AcDbEntity
  8
BEMASS
  6
AUSGEZOGEN
 62
     1
370
    18
100
AcDbText
 10
152.109591140376
 20
-47.621740288786
 30
0.0
 40
3.174999952316
  1
x45%%d
 50
0.0
 41
0.75641025641
  7
Arial
 72
     5
 11
158.853291039096
 21
-47.621740288786
 31
0.0
100
AcDbText
  0
ENDBLK
  5
1F4
330
1F2
100
AcDbEntity
  8
0
100
AcDbBlockEnd
  0
BLOCK
  5
205
330
204
100
AcDbEntity
  8
0
100
AcDbBlockBegin
  2
*D12
 70
     1
 10
0.0
 20
0.0
 30
0.0
  3
*D12
  1

  0
HATCH
  5
207
330
204
100
AcDbEntity
  8
BEMASS
  6
AUSGEZOGEN
 62
     1
370
    18
100
AcDbHatch
 10
0.0
 20
0.0
 30
0.0
210
0.0
220
0.0
230
1.0
  2
SOLID
 70
     1
 71
     0
 91
        1
 92
        2
 72
     0
 73
     1
 93
        3
 10
172.4015065056063
 20
238.8
 10
169.22650655329
 20
239.4349999904633
 10
169.22650655329
 20
238.1650000095368
 97
        0
 75
     0
 76
     1
 98
        0
  0
HATCH
  5
208
330
204
100
AcDbEntity
  8
BEMASS
  6
AUSGEZOGEN
 62
     1
370
    18
100
AcDbHatch
 10
0.0
 20
0.0
 30
0.0
210
0.0
220
0.0
230
1.0
  2
SOLID
 70
     1
 71
     0
 91
        1
 92
        2
 72
     0
 73
     1
 93
        3
 10
161.4015065056063
 20
238.8
 10
164.5765064579226
 20
238.1650000095368
 10
164.5765064579226
 20
239.4349999904633
 97
        0
 75
     0
 76
     1
 98
        0
  0
LINE
  5
209
330
204
100
AcDbEntity
  8
BEMASS
  6
AUSGEZOGEN
 62
     1
370
    18
100
AcDbLine
 10
164.576506457923
 20
238.8
 30
0.0
 11
169.22650655329
 21
238.8
 31
0.0
  0
LINE
  5
20A
330
204
100
AcDbEntity
  8
BEMASS
  6
AUSGEZOGEN
 62
     1
370
    18
100
AcDbLine
 10
161.401506505606
 20
188.8
 30
0.0
 11
161.401506505606
 21
240.614285687038
 31
0.0
  0
LINE
  5
20B
330
204
100
AcDbEntity
  8
BEMASS
  6
AUSGEZOGEN
 62
     1
370
    18
100
AcDbLine
 10
172.401506505606
 20
190.8
 30
0.0
 11
172.401506505606
 21
240.614285687038
 31
0.0
  0
TEXT
  5
20C
330
204
100
AcDbEntity
  8
BEMASS
  6
AUSGEZOGEN
 62
     1
370
    18
100
AcDbText
 10
165.142556532023
 20
239.4
 30
0.0
 40
3.174999952316
  1
11
 41
0.713917525773
  7
Arial
 72
     5
 11
168.66045647919
 21
239.4
 31
0.0
100
AcDbText
  0
ENDBLK
  5
206
330
204
100
AcDbEntity
  8
0
100
AcDbBlockEnd
  0
BLOCK
  5
20F
330
20E
100
AcDbEntity
  8
0
100
AcDbBlockBegin
  2
*D13
 70
     1
 10
0.0
 20
0.0
 30
0.0
  3
*D13
  1

  0
HATCH
  5
211
330
20E
100
AcDbEntity
  8
BEMASS
  6
AUSGEZOGEN
 62
     1
370
    18
100
AcDbHatch
 10
0.0
 20
0.0
 30
0.0
210
0.0
220
0.0
230
1.0
  2
SOLID
 70
     1
 71
     0
 91
        1
 92
        2
 72
     0
 73
     1
 93
        3
 10
196.4015065056063
 20
238.8
 10
193.22650655329
 20
239.4349999904633
 10
193.22650655329
 20
238.1650000095368
 97
        0
 75
     0
 76
     1
 98
        0
  0
HATCH
  5
212
330
20E
100
AcDbEntity
  8
BEMASS
  6
AUSGEZOGEN
 62
     1
370
    18
100
AcDbHatch
 10
0.0
 20
0.0
 30
0.0
210
0.0
220
0.0
230
1.0
  2
SOLID
 70
     1
 71
     0
 91
        1
 92
        2
 72
     0
 73
     1
 93
        3
 10
172.4015065056063
 20
238.8
 10
175.5765064579226
 20
238.1650000095368
 10
175.5765064579226
 20
239.4349999904633
 97
        0
 75
     0
 76
     1
 98
        0
  0
LINE
  5
213
330
20E
100
AcDbEntity
  8
BEMASS
  6
AUSGEZOGEN
 62
     1
370
    18
100
AcDbLine
 10
175.576506457923
 20
238.8
 30
0.0
 11
193.22650655329
 21
238.8
 31
0.0
  0
LINE
  5
214
330
20E
100
AcDbEntity
  8
BEMASS
  6
AUSGEZOGEN
 62
     1
370
    18
100
AcDbLine
 10
172.401506505606
 20
216.8
 30
0.0
 11
172.401506505606
 21
240.614285687038
 31
0.0
  0
LINE
  5
215
330
20E
100
AcDbEntity
  8
BEMASS
  6
AUSGEZOGEN
 62
     1
370
    18
100
AcDbLine
 10
196.401506505606
 20
216.8
 30
0.0
 11
196.401506505606
 21
240.614285687038
 31
0.0
  0
TEXT
  5
216
330
20E
100
AcDbEntity
  8
BEMASS
  6
AUSGEZOGEN
 62
     1
370
    18
100
AcDbText
 10
182.642556532023
 20
239.4
 30
0.0
 40
3.174999952316
  1
24
 41
0.713917525773
  7
Arial
 72
     5
 11
186.16045647919
 21
239.4
 31
0.0
100
AcDbText
  0
ENDBLK
  5
210
330
20E
100
AcDbEntity
  8
0
100
AcDbBlockEnd
  0
BLOCK
  5
219
330
218
100
AcDbEntity
  8
0
100
AcDbBlockBegin
  2
DimBlk_nNn013
 70
     0
 10
0.0
 20
0.0
 30
0.0
  3
DimBlk_nNn013
  1

  0
HATCH
  5
21B
330
218
100
AcDbEntity
  8
BEMASS
  6
AUSGEZOGEN
 62
     1
370
    18
100
AcDbHatch
 10
0.0
 20
0.0
 30
0.0
210
0.0
220
0.0
230
1.0
  2
SOLID
 70
     1
 71
     0
 91
        1
 92
        2
 72
     0
 73
     1
 93
        3
 10
177.1813800684059
 20
-3.784872155164132
 10
174.7638554999935
 20
-5.93880452323397
 10
175.7782544545136
 20
-6.702934559694925
 97
        0
 75
     0
 76
     1
 98
        0
  0
LINE
  5
21C
330
218
100
AcDbEntity
  8
BEMASS
  6
AUSGEZOGEN
 62
     1
370
    18
100
AcDbLine
 10
175.271054977254
 20
-6.320869541464
 30
0.0
 11
166.682013086127
 21
-17.723006218412
 31
0.0
  0
TEXT
  5
21D
330
218
100
AcDbEntity
  8
BEMASS
  6
AUSGEZOGEN
 62
     1
370
    18
100
AcDbText
 10
166.298285732926
 20
-17.235200027237
 30
0.0
 40
3.174999952316
  1
R12
 50
53.009886855627
 41
0.728125
  7
Arial
 72
     5
 11
169.859131702834
 21
-12.508100899173
 31
0.0
100
AcDbText
  0
ENDBLK
  5
21A
330
218
100
AcDbEntity
  8
0
100
AcDbBlockEnd
  0
ENDSEC
  0
SECTION
  2
ENTITIES
  0
LINE
  5
6A
330
1F
100
AcDbEntity
  8
KONTUREN
  6
AUSGEZOGEN
 62
     7
370
    18
100
AcDbLine
 10
190.401506505606
 20
71.3
 30
0.0
 11
190.401506505606
 21
94.3
 31
0.0
  0
LINE
  5
6B
330
1F
100
AcDbEntity
  8
KONTUREN
  6
AUSGEZOGEN
 62
     7
370
    18
100
AcDbLine
 10
196.401506505606
 20
111.3
 30
0.0
 11
196.401506505606
 21
5.8
 31
0.0
  0
LINE
  5
6C
330
1F
100
AcDbEntity
  8
KONTUREN
  6
AUSGEZOGEN
 62
     7
370
    18
100
AcDbLine
 10
237.496621545138
 20
34.088300700202
 30
0.0
 11
237.496621545138
 21
189.088300700202
 31
0.0
  0
LINE
  5
6D
330
1F
100
AcDbEntity
  8
KONTUREN
  6
AUSGEZOGEN
 62
     7
370
    18
100
AcDbLine
 10
238.746621545138
 20
-5.911699299798
 30
0.0
 11
238.746621545138
 21
229.088300700202
 31
0.0
  0
LINE
  5
6E
330
1F
100
AcDbEntity
  8
KONTUREN
  6
AUSGEZOGEN
 62
     7
370
    18
100
AcDbLine
 10
235.746621545138
 20
229.088300700202
 30
0.0
 11
235.746621545138
 21
-5.911699299798
 31
0.0
  0
LINE
  5
6F
330
1F
100
AcDbEntity
  8
KONTUREN
  6
AUSGEZOGEN
 62
     7
370
    18
100
AcDbLine
 10
176.901506505606
 20
79.3
 30
0.0
 11
178.401506505606
 21
77.3
 31
0.0
  0
LINE
  5
70
330
1F
100
AcDbEntity
  8
KONTUREN
  6
AUSGEZOGEN
 62
     7
370
    18
100
AcDbLine
 10
162.651506505606
 20
33.8
 30
0.0
 11
162.651506505606
 21
111.3
 31
0.0
  0
LINE
  5
71
330
1F
100
AcDbEntity
  8
KONTUREN
  6
AUSGEZOGEN
 62
     7
370
    18
100
AcDbLine
 10
161.401506505606
 20
33.8
 30
0.0
 11
161.401506505606
 21
111.3
 31
0.0
  0
LINE
  5
72
330
1F
100
AcDbEntity
  8
MITTEL
  6
DASHDOT
 62
     1
370
    18
100
AcDbLine
 10
192.901506505606
 20
5.8
 30
0.0
 11
196.401506505606
 21
5.8
 31
0.0
  0
CIRCLE
  5
73
330
1F
100
AcDbEntity
  8
KONTUREN
  6
AUSGEZOGEN
 62
     7
370
    18
100
AcDbCircle
 10
189.901506505606
 20
5.8
 30
0.0
 40
5.0
  0
ARC
  5
74
330
1F
100
AcDbEntity
  8
KONTUREN
  6
AUSGEZOGEN
 62
     7
370
    18
100
AcDbCircle
 10
184.401506505606
 20
5.8
 30
0.0
 40
12.0
100
AcDbArc
 50
270.0
 51
0.0
  0
LINE
  5
75
330
1F
100
AcDbEntity
  8
KONTUREN
  6
AUSGEZOGEN
 62
     7
370
    18
100
AcDbLine
 10
172.401506505606
 20
5.8
 30
0.0
 11
172.401506505606
 21
31.8
 31
0.0
  0
LINE
  5
76
330
1F
100
AcDbEntity
  8
MITTEL
  6
DASHDOT
 62
     1
370
    18
100
AcDbLine
 10
189.901506505606
 20
2.8
 30
0.0
 11
189.901506505606
 21
-0.7
 31
0.0
  0
ARC
  5
77
330
1F
100
AcDbEntity
  8
KONTUREN
  6
AUSGEZOGEN
 62
     7
370
    18
100
AcDbCircle
 10
184.401506505606
 20
5.8
 30
0.0
 40
12.0
100
AcDbArc
 50
180.0
 51
270.0
  0
CIRCLE
  5
78
330
1F
100
AcDbEntity
  8
KONTUREN
  6
AUSGEZOGEN
 62
     7
370
    18
100
AcDbCircle
 10
189.901506505606
 20
5.8
 30
0.0
 40
3.0
  0
LINE
  5
79
330
1F
100
AcDbEntity
  8
MITTEL
  6
DASHDOT
 62
     1
370
    18
100
AcDbLine
 10
186.901506505606
 20
5.8
 30
0.0
 11
183.401506505606
 21
5.8
 31
0.0
  0
LINE
  5
7A
330
1F
100
AcDbEntity
  8
MITTEL
  6
DASHDOT
 62
     1
370
    18
100
AcDbLine
 10
189.901506505606
 20
7.3
 30
0.0
 11
189.901506505606
 21
4.3
 31
0.0
  0
LINE
  5
7B
330
1F
100
AcDbEntity
  8
MITTEL
  6
DASHDOT
 62
     1
370
    18
100
AcDbLine
 10
191.401506505606
 20
5.8
 30
0.0
 11
188.401506505606
 21
5.8
 31
0.0
  0
LINE
  5
7C
330
1F
100
AcDbEntity
  8
MITTEL
  6
DASHDOT
 62
     1
370
    18
100
AcDbLine
 10
189.901506505606
 20
8.8
 30
0.0
 11
189.901506505606
 21
12.3
 31
0.0
  0
LINE
  5
7D
330
1F
100
AcDbEntity
  8
KONTUREN
  6
AUSGEZOGEN
 62
     7
370
    18
100
AcDbLine
 10
190.401506505606
 20
71.3
 30
0.0
 11
190.401506505606
 21
48.3
 31
0.0
  0
LINE
  5
7E
330
1F
100
AcDbEntity
  8
KONTUREN
  6
AUSGEZOGEN
 62
     7
370
    18
100
AcDbLine
 10
176.901506505606
 20
63.3
 30
0.0
 11
176.901506505606
 21
48.3
 31
0.0
  0
LINE
  5
7F
330
1F
100
AcDbEntity
  8
KONTUREN
  6
AUSGEZOGEN
 62
     7
370
    18
100
AcDbLine
 10
170.401506505606
 20
33.8
 30
0.0
 11
161.401506505606
 21
33.8
 31
0.0
  0
ARC
  5
80
330
1F
100
AcDbEntity
  8
KONTUREN
  6
AUSGEZOGEN
 62
     7
370
    18
100
AcDbCircle
 10
170.401506505606
 20
31.8
 30
0.0
 40
2.0
100
AcDbArc
 50
0.0
 51
90.0
  0
LINE
  5
81
330
1F
100
AcDbEntity
  8
KONTUREN
  6
AUSGEZOGEN
 62
     7
370
    18
100
AcDbLine
 10
178.901506505606
 20
46.3
 30
0.0
 11
188.401506505606
 21
46.3
 31
0.0
  0
ARC
  5
82
330
1F
100
AcDbEntity
  8
KONTUREN
  6
AUSGEZOGEN
 62
     7
370
    18
100
AcDbCircle
 10
178.901506505606
 20
48.3
 30
0.0
 40
2.0
100
AcDbArc
 50
180.0
 51
270.0
  0
ARC
  5
83
330
1F
100
AcDbEntity
  8
KONTUREN
  6
AUSGEZOGEN
 62
     7
370
    18
100
AcDbCircle
 10
188.401506505606
 20
48.3
 30
0.0
 40
2.0
100
AcDbArc
 50
270.0
 51
0.0
  0
LINE
  5
84
330
1F
100
AcDbEntity
  8
KONTUREN
  6
AUSGEZOGEN
 62
     7
370
    18
100
AcDbLine
 10
178.401506505606
 20
71.3
 30
0.0
 11
178.401506505606
 21
65.3
 31
0.0
  0
LINE
  5
85
330
1F
100
AcDbEntity
  8
KONTUREN
  6
AUSGEZOGEN
 62
     7
370
    18
100
AcDbLine
 10
176.901506505606
 20
63.3
 30
0.0
 11
178.401506505606
 21
65.3
 31
0.0
  0
LINE
  5
86
330
1F
100
AcDbEntity
  8
MITTEL
  6
DASHDOT
 62
     1
370
    18
100
AcDbLine
 10
176.901506505606
 20
71.3
 30
0.0
 11
190.401506505606
 21
71.3
 31
0.0
  0
LINE
  5
87
330
1F
100
AcDbEntity
  8
KONTUREN
  6
AUSGEZOGEN
 62
     7
370
    18
100
AcDbLine
 10
178.401506505606
 20
71.3
 30
0.0
 11
178.401506505606
 21
77.3
 31
0.0
  0
LINE
  5
88
330
1F
100
AcDbEntity
  8
KONTUREN
  6
AUSGEZOGEN
 62
     7
370
    18
100
AcDbLine
 10
235.746621545138
 20
-5.911699299798
 30
0.0
 11
238.746621545138
 21
-5.911699299798
 31
0.0
  0
LINE
  5
89
330
1F
100
AcDbEntity
  8
MITTEL
  6
DASHDOT
 62
     1
370
    18
100
AcDbLine
 10
232.883124445788
 20
6.088300700202
 30
0.0
 11
242.428116964724
 21
6.088300700202
 31
0.0
  0
LINE
  5
8A
330
1F
100
AcDbEntity
  8
KONTUREN
  6
AUSGEZOGEN
 62
     7
370
    18
100
AcDbLine
 10
235.746621545138
 20
34.088300700202
 30
0.0
 11
238.746621545138
 21
34.088300700202
 31
0.0
  0
LINE
  5
8B
330
1F
100
AcDbEntity
  8
VERDECKT
  6
DASHED2
 62
     5
370
    18
100
AcDbLine
 10
235.746621545138
 20
46.588300700202
 30
0.0
 11
238.746621545138
 21
46.588300700202
 31
0.0
  0
LINE
  5
8C
330
1F
100
AcDbEntity
  8
MITTEL
  6
DASHDOT
 62
     1
370
    18
100
AcDbLine
 10
192.901506505606
 20
216.8
 30
0.0
 11
196.401506505606
 21
216.8
 31
0.0
  0
LINE
  5
8D
330
1F
100
AcDbEntity
  8
MITTEL
  6
DASHDOT
 62
     1
370
    18
100
AcDbLine
 10
192.901506505606
 20
111.3
 30
0.0
 11
196.401506505606
 21
111.3
 31
0.0
  0
LINE
  5
8E
330
1F
100
AcDbEntity
  8
MITTEL
  6
DASHDOT
 62
     1
370
    18
100
AcDbLine
 10
161.401506505606
 20
111.3
 30
0.0
 11
196.401506505606
 21
111.3
 31
0.0
  0
ARC
  5
8F
330
1F
100
AcDbEntity
  8
KONTUREN
  6
AUSGEZOGEN
 62
     7
370
    18
100
AcDbCircle
 10
184.401506505606
 20
216.8
 30
0.0
 40
12.0
100
AcDbArc
 50
0.0
 51
90.0
  0
CIRCLE
  5
90
330
1F
100
AcDbEntity
  8
KONTUREN
  6
AUSGEZOGEN
 62
     7
370
    18
100
AcDbCircle
 10
189.901506505606
 20
216.8
 30
0.0
 40
5.0
  0
CIRCLE
  5
91
330
1F
100
AcDbEntity
  8
KONTUREN
  6
AUSGEZOGEN
 62
     7
370
    18
100
AcDbCircle
 10
189.901506505606
 20
111.3
 30
0.0
 40
5.0
  0
LINE
  5
92
330
1F
100
AcDbEntity
  8
KONTUREN
  6
AUSGEZOGEN
 62
     7
370
    18
100
AcDbLine
 10
162.651506505606
 20
188.8
 30
0.0
 11
162.651506505606
 21
111.3
 31
0.0
  0
LINE
  5
93
330
1F
100
AcDbEntity
  8
KONTUREN
  6
AUSGEZOGEN
 62
     7
370
    18
100
AcDbLine
 10
161.401506505606
 20
188.8
 30
0.0
 11
161.401506505606
 21
111.3
 31
0.0
  0
LINE
  5
94
330
1F
100
AcDbEntity
  8
KONTUREN
  6
AUSGEZOGEN
 62
     7
370
    18
100
AcDbLine
 10
190.401506505606
 20
151.3
 30
0.0
 11
190.401506505606
 21
128.3
 31
0.0
  0
LINE
  5
95
330
1F
100
AcDbEntity
  8
KONTUREN
  6
AUSGEZOGEN
 62
     7
370
    18
100
AcDbLine
 10
176.901506505606
 20
143.3
 30
0.0
 11
176.901506505606
 21
128.3
 31
0.0
  0
LINE
  5
96
330
1F
100
AcDbEntity
  8
MITTEL
  6
DASHDOT
 62
     1
370
    18
100
AcDbLine
 10
189.901506505606
 20
108.3
 30
0.0
 11
189.901506505606
 21
104.8
 31
0.0
  0
LINE
  5
97
330
1F
100
AcDbEntity
  8
KONTUREN
  6
AUSGEZOGEN
 62
     7
370
    18
100
AcDbLine
 10
176.901506505606
 20
79.3
 30
0.0
 11
176.901506505606
 21
94.3
 31
0.0
  0
LINE
  5
98
330
1F
100
AcDbEntity
  8
KONTUREN
  6
AUSGEZOGEN
 62
     7
370
    18
100
AcDbLine
 10
178.901506505606
 20
96.3
 30
0.0
 11
188.401506505606
 21
96.3
 31
0.0
  0
ARC
  5
99
330
1F
100
AcDbEntity
  8
KONTUREN
  6
AUSGEZOGEN
 62
     7
370
    18
100
AcDbCircle
 10
178.901506505606
 20
94.3
 30
0.0
 40
2.0
100
AcDbArc
 50
90.0
 51
180.0
  0
ARC
  5
9A
330
1F
100
AcDbEntity
  8
KONTUREN
  6
AUSGEZOGEN
 62
     7
370
    18
100
AcDbCircle
 10
188.401506505606
 20
94.3
 30
0.0
 40
2.0
100
AcDbArc
 50
0.0
 51
90.0
  0
LINE
  5
9B
330
1F
100
AcDbEntity
  8
MITTEL
  6
DASHDOT
 62
     1
370
    18
100
AcDbLine
 10
189.901506505606
 20
109.8
 30
0.0
 11
189.901506505606
 21
112.8
 31
0.0
  0
CIRCLE
  5
9C
330
1F
100
AcDbEntity
  8
KONTUREN
  6
AUSGEZOGEN
 62
     7
370
    18
100
AcDbCircle
 10
189.901506505606
 20
111.3
 30
0.0
 40
3.0
  0
LINE
  5
9D
330
1F
100
AcDbEntity
  8
MITTEL
  6
DASHDOT
 62
     1
370
    18
100
AcDbLine
 10
186.901506505606
 20
111.3
 30
0.0
 11
183.401506505606
 21
111.3
 31
0.0
  0
LINE
  5
9E
330
1F
100
AcDbEntity
  8
MITTEL
  6
DASHDOT
 62
     1
370
    18
100
AcDbLine
 10
191.401506505606
 20
111.3
 30
0.0
 11
188.401506505606
 21
111.3
 31
0.0
  0
LINE
  5
9F
330
1F
100
AcDbEntity
  8
MITTEL
  6
DASHDOT
 62
     1
370
    18
100
AcDbLine
 10
189.901506505606
 20
114.3
 30
0.0
 11
189.901506505606
 21
117.8
 31
0.0
  0
LINE
  5
A0
330
1F
100
AcDbEntity
  8
KONTUREN
  6
AUSGEZOGEN
 62
     7
370
    18
100
AcDbLine
 10
178.901506505606
 20
126.3
 30
0.0
 11
188.401506505606
 21
126.3
 31
0.0
  0
ARC
  5
A1
330
1F
100
AcDbEntity
  8
KONTUREN
  6
AUSGEZOGEN
 62
     7
370
    18
100
AcDbCircle
 10
178.901506505606
 20
128.3
 30
0.0
 40
2.0
100
AcDbArc
 50
180.0
 51
270.0
  0
ARC
  5
A2
330
1F
100
AcDbEntity
  8
KONTUREN
  6
AUSGEZOGEN
 62
     7
370
    18
100
AcDbCircle
 10
188.401506505606
 20
128.3
 30
0.0
 40
2.0
100
AcDbArc
 50
270.0
 51
0.0
  0
LINE
  5
A3
330
1F
100
AcDbEntity
  8
KONTUREN
  6
AUSGEZOGEN
 62
     7
370
    18
100
AcDbLine
 10
190.401506505606
 20
151.3
 30
0.0
 11
190.401506505606
 21
174.3
 31
0.0
  0
LINE
  5
A4
330
1F
100
AcDbEntity
  8
KONTUREN
  6
AUSGEZOGEN
 62
     7
370
    18
100
AcDbLine
 10
178.401506505606
 20
151.3
 30
0.0
 11
178.401506505606
 21
157.3
 31
0.0
  0
LINE
  5
A5
330
1F
100
AcDbEntity
  8
KONTUREN
  6
AUSGEZOGEN
 62
     7
370
    18
100
AcDbLine
 10
176.901506505606
 20
143.3
 30
0.0
 11
178.401506505606
 21
145.3
 31
0.0
  0
LINE
  5
A6
330
1F
100
AcDbEntity
  8
MITTEL
  6
DASHDOT
 62
     1
370
    18
100
AcDbLine
 10
176.901506505606
 20
151.3
 30
0.0
 11
190.401506505606
 21
151.3
 31
0.0
  0
LINE
  5
A7
330
1F
100
AcDbEntity
  8
KONTUREN
  6
AUSGEZOGEN
 62
     7
370
    18
100
AcDbLine
 10
178.401506505606
 20
151.3
 30
0.0
 11
178.401506505606
 21
145.3
 31
0.0
  0
LINE
  5
A8
330
1F
100
AcDbEntity
  8
KONTUREN
  6
AUSGEZOGEN
 62
     7
370
    18
100
AcDbLine
 10
176.901506505606
 20
159.3
 30
0.0
 11
176.901506505606
 21
174.3
 31
0.0
  0
LINE
  5
A9
330
1F
100
AcDbEntity
  8
KONTUREN
  6
AUSGEZOGEN
 62
     7
370
    18
100
AcDbLine
 10
176.901506505606
 20
159.3
 30
0.0
 11
178.401506505606
 21
157.3
 31
0.0
  0
LINE
  5
AA
330
1F
100
AcDbEntity
  8
KONTUREN
  6
AUSGEZOGEN
 62
     7
370
    18
100
AcDbLine
 10
178.901506505606
 20
176.3
 30
0.0
 11
188.401506505606
 21
176.3
 31
0.0
  0
ARC
  5
AB
330
1F
100
AcDbEntity
  8
KONTUREN
  6
AUSGEZOGEN
 62
     7
370
    18
100
AcDbCircle
 10
178.901506505606
 20
174.3
 30
0.0
 40
2.0
100
AcDbArc
 50
90.0
 51
180.0
  0
ARC
  5
AC
330
1F
100
AcDbEntity
  8
KONTUREN
  6
AUSGEZOGEN
 62
     7
370
    18
100
AcDbCircle
 10
188.401506505606
 20
174.3
 30
0.0
 40
2.0
100
AcDbArc
 50
0.0
 51
90.0
  0
LINE
  5
AD
330
1F
100
AcDbEntity
  8
KONTUREN
  6
AUSGEZOGEN
 62
     7
370
    18
100
AcDbLine
 10
172.401506505606
 20
216.8
 30
0.0
 11
172.401506505606
 21
190.8
 31
0.0
  0
LINE
  5
AE
330
1F
100
AcDbEntity
  8
KONTUREN
  6
AUSGEZOGEN
 62
     7
370
    18
100
AcDbLine
 10
170.401506505606
 20
188.8
 30
0.0
 11
161.401506505606
 21
188.8
 31
0.0
  0
ARC
  5
AF
330
1F
100
AcDbEntity
  8
KONTUREN
  6
AUSGEZOGEN
 62
     7
370
    18
100
AcDbCircle
 10
170.401506505606
 20
190.8
 30
0.0
 40
2.0
100
AcDbArc
 50
270.0
 51
0.0
  0
ARC
  5
B0
330
1F
100
AcDbEntity
  8
KONTUREN
  6
AUSGEZOGEN
 62
     7
370
    18
100
AcDbCircle
 10
184.401506505606
 20
216.8
 30
0.0
 40
12.0
100
AcDbArc
 50
90.0
 51
180.0
  0
LINE
  5
B1
330
1F
100
AcDbEntity
  8
MITTEL
  6
DASHDOT
 62
     1
370
    18
100
AcDbLine
 10
189.901506505606
 20
219.8
 30
0.0
 11
189.901506505606
 21
223.3
 31
0.0
  0
LINE
  5
B2
330
1F
100
AcDbEntity
  8
MITTEL
  6
DASHDOT
 62
     1
370
    18
100
AcDbLine
 10
189.901506505606
 20
215.3
 30
0.0
 11
189.901506505606
 21
218.3
 31
0.0
  0
CIRCLE
  5
B3
330
1F
100
AcDbEntity
  8
KONTUREN
  6
AUSGEZOGEN
 62
     7
370
    18
100
AcDbCircle
 10
189.901506505606
 20
216.8
 30
0.0
 40
3.0
  0
LINE
  5
B4
330
1F
100
AcDbEntity
  8
MITTEL
  6
DASHDOT
 62
     1
370
    18
100
AcDbLine
 10
189.901506505606
 20
213.8
 30
0.0
 11
189.901506505606
 21
210.3
 31
0.0
  0
LINE
  5
B5
330
1F
100
AcDbEntity
  8
MITTEL
  6
DASHDOT
 62
     1
370
    18
100
AcDbLine
 10
186.901506505606
 20
216.8
 30
0.0
 11
183.401506505606
 21
216.8
 31
0.0
  0
LINE
  5
B6
330
1F
100
AcDbEntity
  8
MITTEL
  6
DASHDOT
 62
     1
370
    18
100
AcDbLine
 10
191.401506505606
 20
216.8
 30
0.0
 11
188.401506505606
 21
216.8
 31
0.0
  0
LINE
  5
B7
330
1F
100
AcDbEntity
  8
KONTUREN
  6
AUSGEZOGEN
 62
     7
370
    18
100
AcDbLine
 10
196.401506505606
 20
111.3
 30
0.0
 11
196.401506505606
 21
216.8
 31
0.0
  0
LINE
  5
B8
330
1F
100
AcDbEntity
  8
VERDECKT
  6
DASHED2
 62
     5
370
    18
100
AcDbLine
 10
235.746621545138
 20
96.588300700202
 30
0.0
 11
238.746621545138
 21
96.588300700202
 31
0.0
  0
LINE
  5
B9
330
1F
100
AcDbEntity
  8
MITTEL
  6
DASHDOT
 62
     1
370
    18
100
AcDbLine
 10
234.618272724823
 20
111.588300700202
 30
0.0
 11
242.109950620352
 21
111.588300700202
 31
0.0
  0
LINE
  5
BA
330
1F
100
AcDbEntity
  8
VERDECKT
  6
DASHED2
 62
     5
370
    18
100
AcDbLine
 10
235.746621545138
 20
126.588300700202
 30
0.0
 11
238.746621545138
 21
126.588300700202
 31
0.0
  0
LINE
  5
BB
330
1F
100
AcDbEntity
  8
VERDECKT
  6
DASHED2
 62
     5
370
    18
100
AcDbLine
 10
235.746621545138
 20
176.588300700202
 30
0.0
 11
238.746621545138
 21
176.588300700202
 31
0.0
  0
LINE
  5
BC
330
1F
100
AcDbEntity
  8
KONTUREN
  6
AUSGEZOGEN
 62
     7
370
    18
100
AcDbLine
 10
235.746621545138
 20
189.088300700202
 30
0.0
 11
238.746621545138
 21
189.088300700202
 31
0.0
  0
LINE
  5
BD
330
1F
100
AcDbEntity
  8
MITTEL
  6
DASHDOT
 62
     1
370
    18
100
AcDbLine
 10
232.883124445788
 20
217.088300700202
 30
0.0
 11
241.79178427598
 21
217.088300700202
 31
0.0
  0
LINE
  5
BE
330
1F
100
AcDbEntity
  8
KONTUREN
  6
AUSGEZOGEN
 62
     7
370
    18
100
AcDbLine
 10
238.746621545138
 20
229.088300700202
 30
0.0
 11
235.746621545138
 21
229.088300700202
 31
0.0
  0
DIMENSION
  5
CA
330
1F
100
AcDbEntity
  8
BEMASS
  6
AUSGEZOGEN
 62
     1
370
    18
100
AcDbDimension
  2
*D1
 10
235.746621545138
 20
235.624850534057
 30
0.0
 11
237.246621545138
 21
237.812350510215
 31
0.0
 70
    32
 71
     5
 42
-1.0
  3
ISO-25
100
AcDbAlignedDimension
 13
238.746621545138
 23
229.088300700202
 33
0.0
 14
235.746621545138
 24
229.088300700202
 34
0.0
 50
180.0
100
AcDbRotatedDimension
1001
ACAD
1000
DSTYLE
1002
{
1070
     3
1000
<>
1070
   340
1005
61
1070
    44
1040
2.267857108797
1070
   280
1070
     0
1070
    77
1070
     1
1070
    78
1070
     8
1070
   179
1070
     2
1070
   271
1070
     2
1070
   173
1070
     1
1070
    41
1040
3.174999952316
1070
   147
1040
0.453571421759
1070
   140
1040
3.174999952316
1070
   178
1070
     1
1070
   177
1070
     1
1070
   176
1070
     1
1002
}
  0
DIMENSION
  5
D4
330
1F
100
AcDbEntity
  8
BEMASS
  6
AUSGEZOGEN
 62
     1
370
    18
100
AcDbDimension
  2
*D2
 10
147.68
 20
188.8
 30
0.0
 11
145.492500023842
 21
111.3
 31
0.0
 70
    32
 71
     5
 42
-1.0
 53
90.0
  3
ISO-25
100
AcDbAlignedDimension
 13
161.401506505606
 23
33.8
 33
0.0
 14
161.401506505606
 24
188.8
 34
0.0
 50
90.0
100
AcDbRotatedDimension
1001
ACAD
1000
DSTYLE
1002
{
1070
     3
1000
<>
1070
   340
1005
61
1070
    44
1040
2.267857108797
1070
   280
1070
     0
1070
    77
1070
     1
1070
    78
1070
     8
1070
   179
1070
     2
1070
   271
1070
     2
1070
   173
1070
     1
1070
    41
1040
3.174999952316
1070
   147
1040
0.453571421759
1070
   140
1040
3.174999952316
1070
   178
1070
     1
1070
   177
1070
     1
1070
   176
1070
     1
1002
}
  0
INSERT
  5
DB
330
1F
100
AcDbEntity
  8
0
100
AcDbBlockReference
  2
DimBlk_nNn02
 10
0.0
 20
0.0
 30
0.0
  0
DIMENSION
  5
E5
330
1F
100
AcDbEntity
  8
BEMASS
  6
AUSGEZOGEN
 62
     1
370
    18
100
AcDbDimension
  2
*D4
 10
190.401506505606
 20
184.223344404615
 30
0.0
 11
183.651506505606
 21
186.410844380773
 31
0.0
 70
    32
 71
     5
 42
-1.0
  3
ISO-25
100
AcDbAlignedDimension
 13
176.901506505606
 23
174.3
 33
0.0
 14
190.401506505606
 24
174.3
 34
0.0
100
AcDbRotatedDimension
1001
ACAD
1000
DSTYLE
1002
{
1070
     3
1000
<>
1070
   340
1005
61
1070
    44
1040
2.267857108797
1070
   280
1070
     0
1070
    77
1070
     1
1070
    78
1070
     8
1070
   179
1070
     2
1070
   271
1070
     2
1070
   173
1070
     1
1070
    41
1040
3.174999952316
1070
   147
1040
0.453571421759
1070
   140
1040
3.174999952316
1070
   178
1070
     1
1070
   177
1070
     1
1070
   176
1070
     1
1002
}
  0
DIMENSION
  5
EF
330
1F
100
AcDbEntity
  8
BEMASS
  6
AUSGEZOGEN
 62
     1
370
    18
100
AcDbDimension
  2
*D5
 10
207.218975938716
 20
126.3
 30
0.0
 11
205.031475962558
 21
151.3
 31
0.0
 70
    32
 71
     5
 42
-1.0
 53
90.0
  3
ISO-25
100
AcDbAlignedDimension
 13
188.401506505606
 23
176.3
 33
0.0
 14
188.401506505606
 24
126.3
 34
0.0
 50
-90.0
100
AcDbRotatedDimension
1001
ACAD
1000
DSTYLE
1002
{
1070
     3
1000
<>
1070
   340
1005
61
1070
    44
1040
2.267857108797
1070
   280
1070
     0
1070
    77
1070
     1
1070
    78
1070
     8
1070
   179
1070
     2
1070
   271
1070
     2
1070
   173
1070
     1
1070
    41
1040
3.174999952316
1070
   147
1040
0.453571421759
1070
   140
1040
3.174999952316
1070
   178
1070
     1
1070
   177
1070
     1
1070
   176
1070
     1
1002
}
  0
DIMENSION
  5
F9
330
1F
100
AcDbEntity
  8
BEMASS
  6
AUSGEZOGEN
 62
     1
370
    18
100
AcDbDimension
  2
*D6
 10
207.218975938716
 20
96.3
 30
0.0
 11
205.031475962558
 21
111.3
 31
0.0
 70
    32
 71
     5
 42
-1.0
 53
90.0
  3
ISO-25
100
AcDbAlignedDimension
 13
188.401506505606
 23
126.3
 33
0.0
 14
188.401506505606
 24
96.3
 34
0.0
 50
-90.0
100
AcDbRotatedDimension
1001
ACAD
1000
DSTYLE
1002
{
1070
     3
1000
<>
1070
   340
1005
61
1070
    44
1040
2.267857108797
1070
   280
1070
     0
1070
    77
1070
     1
1070
    78
1070
     8
1070
   179
1070
     2
1070
   271
1070
     2
1070
   173
1070
     1
1070
    41
1040
3.174999952316
1070
   147
1040
0.453571421759
1070
   140
1040
3.174999952316
1070
   178
1070
     1
1070
   177
1070
     1
1070
   176
1070
     1
1002
}
  0
DIMENSION
  5
103
330
1F
100
AcDbEntity
  8
BEMASS
  6
AUSGEZOGEN
 62
     1
370
    18
100
AcDbDimension
  2
*D7
 10
207.218975938716
 20
46.3
 30
0.0
 11
205.031475962558
 21
71.3
 31
0.0
 70
    32
 71
     5
 42
-1.0
 53
90.0
  3
ISO-25
100
AcDbAlignedDimension
 13
188.401506505606
 23
96.3
 33
0.0
 14
188.401506505606
 24
46.3
 34
0.0
 50
-90.0
100
AcDbRotatedDimension
1001
ACAD
1000
DSTYLE
1002
{
1070
     3
1000
<>
1070
   340
1005
61
1070
    44
1040
2.267857108797
1070
   280
1070
     0
1070
    77
1070
     1
1070
    78
1070
     8
1070
   179
1070
     2
1070
   271
1070
     2
1070
   173
1070
     1
1070
    41
1040
3.174999952316
1070
   147
1040
0.453571421759
1070
   140
1040
3.174999952316
1070
   178
1070
     1
1070
   177
1070
     1
1070
   176
1070
     1
1002
}
  0
DIMENSION
  5
10D
330
1F
100
AcDbEntity
  8
BEMASS
  6
AUSGEZOGEN
 62
     1
370
    18
100
AcDbDimension
  2
*D8
 10
161.401506505606
 20
122.770094005327
 30
0.0
 11
169.901506505606
 21
124.957593981485
 31
0.0
 70
    32
 71
     5
 42
-1.0
  3
ISO-25
100
AcDbAlignedDimension
 13
178.401506505606
 23
145.3
 33
0.0
 14
161.401506505606
 24
117.8
 34
0.0
 50
180.0
100
AcDbRotatedDimension
1001
ACAD
1000
DSTYLE
1002
{
1070
     3
1000
<>
1070
   340
1005
61
1070
    44
1040
2.267857108797
1070
   280
1070
     0
1070
    77
1070
     1
1070
    78
1070
     8
1070
   179
1070
     2
1070
   271
1070
     2
1070
   173
1070
     1
1070
    41
1040
3.174999952316
1070
   147
1040
0.453571421759
1070
   140
1040
3.174999952316
1070
   178
1070
     1
1070
   177
1070
     1
1070
   176
1070
     1
1002
}
  0
DIMENSION
  5
115
330
1F
100
AcDbEntity
  8
BEMASS
  6
AUSGEZOGEN
 62
     1
370
    18
100
AcDbDimension
  2
*D9
 10
161.401506505606
 20
132.623803985025
 30
0.0
 11
169.151506505606
 21
134.811303961183
 31
0.0
 70
    32
 71
     5
 42
-1.0
  3
ISO-25
100
AcDbAlignedDimension
 13
176.901506505606
 23
132.623803985025
 33
0.0
 14
161.401506505606
 24
132.623803985025
 34
0.0
 50
180.0
100
AcDbRotatedDimension
1001
ACAD
1000
DSTYLE
1002
{
1070
     3
1000
<>
1070
   340
1005
61
1070
    44
1040
2.267857108797
1070
   280
1070
     0
1070
    77
1070
     1
1070
    78
1070
     8
1070
   179
1070
     2
1070
   271
1070
     2
1070
   173
1070
     1
1070
    41
1040
3.174999952316
1070
   147
1040
0.453571421759
1070
   140
1040
3.174999952316
1070
   178
1070
     1
1070
   177
1070
     1
1070
   176
1070
     1
1002
}
  0
DIMENSION
  5
11F
330
1F
100
AcDbEntity
  8
BEMASS
  6
AUSGEZOGEN
 62
     1
370
    18
100
AcDbDimension
  2
*D10
 10
140.49698230624
 20
-6.2
 30
0.0
 11
138.309482330081
 21
111.3
 31
0.0
 70
    32
 71
     5
 42
-1.0
 53
90.0
  3
ISO-25
100
AcDbAlignedDimension
 13
184.401506505606
 23
228.8
 33
0.0
 14
184.401506505606
 24
-6.2
 34
0.0
 50
-90.0
100
AcDbRotatedDimension
1001
ACAD
1000
DSTYLE
1002
{
1070
     3
1000
<>
1070
   340
1005
61
1070
    44
1040
2.267857108797
1070
   280
1070
     0
1070
    77
1070
     1
1070
    78
1070
     8
1070
   179
1070
     2
1070
   271
1070
     2
1070
   173
1070
     1
1070
    41
1040
3.174999952316
1070
   147
1040
0.453571421759
1070
   140
1040
3.174999952316
1070
   178
1070
     1
1070
   177
1070
     1
1070
   176
1070
     1
1002
}
  0
LINE
  5
120
330
1F
100
AcDbEntity
  8
Layer11
  6
AUSGEZOGEN
 62
    18
370
    18
100
AcDbLine
 10
191.453790480652
 20
291.846988815036
 30
0.0
 11
191.453790480652
 21
281.846988815036
 31
0.0
  0
LWPOLYLINE
  5
121
330
1F
100
AcDbEntity
  8
RAHMEN
  6
AUSGEZOGEN
 62
    18
370
    35
100
AcDbPolyline
 90
        4
 70
     1
 43
0.0
 10
47.953790480652
 20
281.846988815036
 10
334.953790480652
 20
281.846988815036
 10
334.953790480652
 20
-118.153011184964
 10
47.953790480652
 20
-118.153011184964
  0
LINE
  5
122
330
1F
100
AcDbEntity
  8
Layer11
  6
AUSGEZOGEN
 62
    18
370
    18
100
AcDbLine
 10
339.953790480652
 20
171.846988815036
 30
0.0
 11
334.953790480652
 21
171.846988815036
 31
0.0
  0
LINE
  5
123
330
1F
100
AcDbEntity
  8
Layer11
  6
AUSGEZOGEN
 62
    18
370
    18
100
AcDbLine
 10
339.953790480652
 20
66.846988815036
 30
0.0
 11
334.953790480652
 21
66.846988815036
 31
0.0
  0
LINE
  5
124
330
1F
100
AcDbEntity
  8
Layer11
  6
AUSGEZOGEN
 62
    18
370
    18
100
AcDbLine
 10
42.953790480652
 20
66.846988815036
 30
0.0
 11
47.953790480652
 21
66.846988815036
 31
0.0
  0
LINE
  5
125
330
1F
100
AcDbEntity
  8
Layer11
  6
AUSGEZOGEN
 62
    18
370
    18
100
AcDbLine
 10
42.953790480652
 20
171.846988815036
 30
0.0
 11
47.953790480652
 21
171.846988815036
 31
0.0
  0
LINE
  5
126
330
1F
100
AcDbEntity
  8
Layer11
  6
AUSGEZOGEN
 62
     9
370
    18
100
AcDbLine
 10
48.453790480652
 20
296.846988815036
 30
0.0
 11
42.953790480652
 21
296.846988815036
 31
0.0
  0
LINE
  5
127
330
1F
100
AcDbEntity
  8
Layer11
  6
AUSGEZOGEN
 62
     9
370
    18
100
AcDbLine
 10
42.953790480652
 20
296.846988815036
 30
0.0
 11
42.953790480652
 21
291.346988815036
 31
0.0
  0
LINE
  5
128
330
1F
100
AcDbEntity
  8
Layer11
  6
AUSGEZOGEN
 62
     9
370
    18
100
AcDbLine
 10
42.953790480652
 20
-117.653011184964
 30
0.0
 11
42.953790480652
 21
-123.153011184964
 31
0.0
  0
LINE
  5
129
330
1F
100
AcDbEntity
  8
Layer11
  6
AUSGEZOGEN
 62
     9
370
    18
100
AcDbLine
 10
42.953790480652
 20
-123.153011184964
 30
0.0
 11
48.453790480652
 21
-123.153011184964
 31
0.0
  0
LINE
  5
12A
330
1F
100
AcDbEntity
  8
Layer11
  6
AUSGEZOGEN
 62
     9
370
    18
100
AcDbLine
 10
334.453790480652
 20
-123.153011184964
 30
0.0
 11
339.953790480652
 21
-123.153011184964
 31
0.0
  0
LINE
  5
12B
330
1F
100
AcDbEntity
  8
Layer11
  6
AUSGEZOGEN
 62
     9
370
    18
100
AcDbLine
 10
339.953790480652
 20
-123.153011184964
 30
0.0
 11
339.953790480652
 21
-117.653011184964
 31
0.0
  0
LINE
  5
12C
330
1F
100
AcDbEntity
  8
Layer11
  6
AUSGEZOGEN
 62
     9
370
    18
100
AcDbLine
 10
339.953790480652
 20
291.346988815036
 30
0.0
 11
339.953790480652
 21
296.846988815036
 31
0.0
  0
LINE
  5
12D
330
1F
100
AcDbEntity
  8
Layer11
  6
AUSGEZOGEN
 62
     9
370
    18
100
AcDbLine
 10
339.953790480652
 20
296.846988815036
 30
0.0
 11
334.453790480652
 21
296.846988815036
 31
0.0
  0
LINE
  5
12E
330
1F
100
AcDbEntity
  8
RAHMEN
  6
AUSGEZOGEN
 62
    18
370
    18
100
AcDbLine
 10
255.582711604787
 20
-78.153011184964
 30
0.0
 11
255.560972644024
 21
-77.775888238225
 31
0.0
  0
LINE
  5
12F
330
1F
100
AcDbEntity
  8
RAHMEN
  6
AUSGEZOGEN
 62
    18
370
    18
100
AcDbLine
 10
255.560972644024
 20
-77.775888238225
 30
0.0
 11
255.503002081987
 21
-77.406017655845
 31
0.0
  0
LINE
  5
130
330
1F
100
AcDbEntity
  8
RAHMEN
  6
AUSGEZOGEN
 62
    18
370
    18
100
AcDbLine
 10
255.503002081987
 20
-77.406017655845
 30
0.0
 11
255.408799918679
 21
-77.043399437827
 31
0.0
  0
LINE
  5
131
330
1F
100
AcDbEntity
  8
RAHMEN
  6
AUSGEZOGEN
 62
    18
370
    18
100
AcDbLine
 10
255.408799918679
 20
-77.043399437827
 30
0.0
 11
255.271119833843
 21
-76.695285948528
 31
0.0
  0
LINE
  5
132
330
1F
100
AcDbEntity
  8
RAHMEN
  6
AUSGEZOGEN
 62
    18
370
    18
100
AcDbLine
 10
255.271119833843
 20
-76.695285948528
 30
0.0
 11
255.10445446799
 21
-76.361677187951
 31
0.0
  0
LINE
  5
133
330
1F
100
AcDbEntity
  8
RAHMEN
  6
AUSGEZOGEN
 62
    18
370
    18
100
AcDbLine
 10
255.10445446799
 20
-76.361677187951
 30
0.0
 11
254.894311180609
 21
-76.049825520455
 31
0.0
  0
LINE
  5
134
330
1F
100
AcDbEntity
  8
RAHMEN
  6
AUSGEZOGEN
 62
    18
370
    18
100
AcDbLine
 10
254.894311180609
 20
-76.049825520455
 30
0.0
 11
254.662428932465
 21
-75.75973094604
 31
0.0
  0
LINE
  5
135
330
1F
100
AcDbEntity
  8
RAHMEN
  6
AUSGEZOGEN
 62
    18
370
    18
100
AcDbLine
 10
254.662428932465
 20
-75.75973094604
 30
0.0
 11
254.394315083048
 21
-75.491393464706
 31
0.0
  0
LINE
  5
136
330
1F
100
AcDbEntity
  8
RAHMEN
  6
AUSGEZOGEN
 62
    18
370
    18
100
AcDbLine
 10
254.394315083048
 20
-75.491393464706
 30
0.0
 11
254.104462272867
 21
-75.259317805174
 31
0.0
  0
LINE
  5
137
330
1F
100
AcDbEntity
  8
RAHMEN
  6
AUSGEZOGEN
 62
    18
370
    18
100
AcDbLine
 10
254.104462272867
 20
-75.259317805174
 30
0.0
 11
253.792870501924
 21
-75.048999238723
 31
0.0
  0
LINE
  5
138
330
1F
100
AcDbEntity
  8
RAHMEN
  6
AUSGEZOGEN
 62
    18
370
    18
100
AcDbLine
 10
253.792870501924
 20
-75.048999238723
 30
0.0
 11
253.459539770217
 21
-74.882194858434
 31
0.0
  0
LINE
  5
139
330
1F
100
AcDbEntity
  8
RAHMEN
  6
AUSGEZOGEN
 62
    18
370
    18
100
AcDbLine
 10
253.459539770217
 20
-74.882194858434
 30
0.0
 11
253.111716398
 21
-74.744399935587
 31
0.0
  0
LINE
  5
13A
330
1F
100
AcDbEntity
  8
RAHMEN
  6
AUSGEZOGEN
 62
    18
370
    18
100
AcDbLine
 10
253.111716398
 20
-74.744399935587
 30
0.0
 11
252.749400385275
 21
-74.650119198902
 31
0.0
  0
LINE
  5
13B
330
1F
100
AcDbEntity
  8
RAHMEN
  6
AUSGEZOGEN
 62
    18
370
    18
100
AcDbLine
 10
252.749400385275
 20
-74.650119198902
 30
0.0
 11
252.379838052295
 21
-74.592100284019
 31
0.0
  0
LINE
  5
13C
330
1F
100
AcDbEntity
  8
RAHMEN
  6
AUSGEZOGEN
 62
    18
370
    18
100
AcDbLine
 10
252.379838052295
 20
-74.592100284019
 30
0.0
 11
252.003029399061
 21
-74.570343190937
 31
0.0
  0
LINE
  5
13D
330
1F
100
AcDbEntity
  8
RAHMEN
  6
AUSGEZOGEN
 62
    18
370
    18
100
AcDbLine
 10
252.003029399061
 20
-74.570343190937
 30
0.0
 11
251.626220745826
 21
-74.592100284019
 31
0.0
  0
LINE
  5
13E
330
1F
100
AcDbEntity
  8
RAHMEN
  6
AUSGEZOGEN
 62
    18
370
    18
100
AcDbLine
 10
251.626220745826
 20
-74.592100284019
 30
0.0
 11
251.256658412847
 21
-74.650119198902
 31
0.0
  0
LINE
  5
13F
330
1F
100
AcDbEntity
  8
RAHMEN
  6
AUSGEZOGEN
 62
    18
370
    18
100
AcDbLine
 10
251.256658412847
 20
-74.650119198902
 30
0.0
 11
250.894342400121
 21
-74.744399935587
 31
0.0
  0
LINE
  5
140
330
1F
100
AcDbEntity
  8
RAHMEN
  6
AUSGEZOGEN
 62
    18
370
    18
100
AcDbLine
 10
250.894342400121
 20
-74.744399935587
 30
0.0
 11
250.546519027905
 21
-74.882194858434
 31
0.0
  0
LINE
  5
141
330
1F
100
AcDbEntity
  8
RAHMEN
  6
AUSGEZOGEN
 62
    18
370
    18
100
AcDbLine
 10
250.546519027905
 20
-74.882194858434
 30
0.0
 11
250.213188296197
 21
-75.048999238723
 31
0.0
  0
LINE
  5
142
330
1F
100
AcDbEntity
  8
RAHMEN
  6
AUSGEZOGEN
 62
    18
370
    18
100
AcDbLine
 10
250.213188296197
 20
-75.048999238723
 30
0.0
 11
249.901596525253
 21
-75.259317805174
 31
0.0
  0
LINE
  5
143
330
1F
100
AcDbEntity
  8
RAHMEN
  6
AUSGEZOGEN
 62
    18
370
    18
100
AcDbLine
 10
249.901596525253
 20
-75.259317805174
 30
0.0
 11
249.611743715073
 21
-75.491393464706
 31
0.0
  0
LINE
  5
144
330
1F
100
AcDbEntity
  8
RAHMEN
  6
AUSGEZOGEN
 62
    18
370
    18
100
AcDbLine
 10
249.611743715073
 20
-75.491393464706
 30
0.0
 11
249.343629865657
 21
-75.75973094604
 31
0.0
  0
LINE
  5
145
330
1F
100
AcDbEntity
  8
RAHMEN
  6
AUSGEZOGEN
 62
    18
370
    18
100
AcDbLine
 10
249.343629865657
 20
-75.75973094604
 30
0.0
 11
249.111747617512
 21
-76.049825520455
 31
0.0
  0
LINE
  5
146
330
1F
100
AcDbEntity
  8
RAHMEN
  6
AUSGEZOGEN
 62
    18
370
    18
100
AcDbLine
 10
249.111747617512
 20
-76.049825520455
 30
0.0
 11
248.901604330132
 21
-76.361677187951
 31
0.0
  0
LINE
  5
147
330
1F
100
AcDbEntity
  8
RAHMEN
  6
AUSGEZOGEN
 62
    18
370
    18
100
AcDbLine
 10
248.901604330132
 20
-76.361677187951
 30
0.0
 11
248.734938964278
 21
-76.695285948528
 31
0.0
  0
LINE
  5
148
330
1F
100
AcDbEntity
  8
RAHMEN
  6
AUSGEZOGEN
 62
    18
370
    18
100
AcDbLine
 10
248.734938964278
 20
-76.695285948528
 30
0.0
 11
248.597258879443
 21
-77.043399437827
 31
0.0
  0
LINE
  5
149
330
1F
100
AcDbEntity
  8
RAHMEN
  6
AUSGEZOGEN
 62
    18
370
    18
100
AcDbLine
 10
248.597258879443
 20
-77.043399437827
 30
0.0
 11
248.503056716134
 21
-77.406017655845
 31
0.0
  0
LINE
  5
14A
330
1F
100
AcDbEntity
  8
RAHMEN
  6
AUSGEZOGEN
 62
    18
370
    18
100
AcDbLine
 10
248.503056716134
 20
-77.406017655845
 30
0.0
 11
248.445086154098
 21
-77.775888238225
 31
0.0
  0
LINE
  5
14B
330
1F
100
AcDbEntity
  8
RAHMEN
  6
AUSGEZOGEN
 62
    18
370
    18
100
AcDbLine
 10
248.445086154098
 20
-77.775888238225
 30
0.0
 11
248.423347193335
 21
-78.153011184964
 31
0.0
  0
LINE
  5
14C
330
1F
100
AcDbEntity
  8
RAHMEN
  6
AUSGEZOGEN
 62
    18
370
    18
100
AcDbLine
 10
248.423347193335
 20
-78.153011184964
 30
0.0
 11
248.445086154098
 21
-78.522881767344
 31
0.0
  0
LINE
  5
14D
330
1F
100
AcDbEntity
  8
RAHMEN
  6
AUSGEZOGEN
 62
    18
370
    18
100
AcDbLine
 10
248.445086154098
 20
-78.522881767344
 30
0.0
 11
248.503056716134
 21
-78.892752349723
 31
0.0
  0
LINE
  5
14E
330
1F
100
AcDbEntity
  8
RAHMEN
  6
AUSGEZOGEN
 62
    18
370
    18
100
AcDbLine
 10
248.503056716134
 20
-78.892752349723
 30
0.0
 11
248.597258879443
 21
-79.255370567742
 31
0.0
  0
LINE
  5
14F
330
1F
100
AcDbEntity
  8
RAHMEN
  6
AUSGEZOGEN
 62
    18
370
    18
100
AcDbLine
 10
248.597258879443
 20
-79.255370567742
 30
0.0
 11
248.734938964278
 21
-79.60348405704
 31
0.0
  0
LINE
  5
150
330
1F
100
AcDbEntity
  8
RAHMEN
  6
AUSGEZOGEN
 62
    18
370
    18
100
AcDbLine
 10
248.734938964278
 20
-79.60348405704
 30
0.0
 11
248.901604330132
 21
-79.937092817617
 31
0.0
  0
LINE
  5
151
330
1F
100
AcDbEntity
  8
RAHMEN
  6
AUSGEZOGEN
 62
    18
370
    18
100
AcDbLine
 10
248.901604330132
 20
-79.937092817617
 30
0.0
 11
249.111747617512
 21
-80.256196849474
 31
0.0
  0
LINE
  5
152
330
1F
100
AcDbEntity
  8
RAHMEN
  6
AUSGEZOGEN
 62
    18
370
    18
100
AcDbLine
 10
249.111747617512
 20
-80.256196849474
 30
0.0
 11
249.343629865657
 21
-80.546291423889
 31
0.0
  0
LINE
  5
153
330
1F
100
AcDbEntity
  8
RAHMEN
  6
AUSGEZOGEN
 62
    18
370
    18
100
AcDbLine
 10
249.343629865657
 20
-80.546291423889
 30
0.0
 11
249.611743715073
 21
-80.807376540863
 31
0.0
  0
LINE
  5
154
330
1F
100
AcDbEntity
  8
RAHMEN
  6
AUSGEZOGEN
 62
    18
370
    18
100
AcDbLine
 10
249.611743715073
 20
-80.807376540863
 30
0.0
 11
249.901596525253
 21
-81.046704564755
 31
0.0
  0
LINE
  5
155
330
1F
100
AcDbEntity
  8
RAHMEN
  6
AUSGEZOGEN
 62
    18
370
    18
100
AcDbLine
 10
249.901596525253
 20
-81.046704564755
 30
0.0
 11
250.213188296197
 21
-81.249770766846
 31
0.0
  0
LINE
  5
156
330
1F
100
AcDbEntity
  8
RAHMEN
  6
AUSGEZOGEN
 62
    18
370
    18
100
AcDbLine
 10
250.213188296197
 20
-81.249770766846
 30
0.0
 11
250.546519027905
 21
-81.416575147135
 31
0.0
  0
LINE
  5
157
330
1F
100
AcDbEntity
  8
RAHMEN
  6
AUSGEZOGEN
 62
    18
370
    18
100
AcDbLine
 10
250.546519027905
 20
-81.416575147135
 30
0.0
 11
250.894342400121
 21
-81.554370069982
 31
0.0
  0
LINE
  5
158
330
1F
100
AcDbEntity
  8
RAHMEN
  6
AUSGEZOGEN
 62
    18
370
    18
100
AcDbLine
 10
250.894342400121
 20
-81.554370069982
 30
0.0
 11
251.256658412847
 21
-81.648650806667
 31
0.0
  0
LINE
  5
159
330
1F
100
AcDbEntity
  8
RAHMEN
  6
AUSGEZOGEN
 62
    18
370
    18
100
AcDbLine
 10
251.256658412847
 20
-81.648650806667
 30
0.0
 11
251.626220745826
 21
-81.70666972155
 31
0.0
  0
LINE
  5
15A
330
1F
100
AcDbEntity
  8
RAHMEN
  6
AUSGEZOGEN
 62
    18
370
    18
100
AcDbLine
 10
251.626220745826
 20
-81.70666972155
 30
0.0
 11
252.003029399061
 21
-81.728426814631
 31
0.0
  0
LINE
  5
15B
330
1F
100
AcDbEntity
  8
RAHMEN
  6
AUSGEZOGEN
 62
    18
370
    18
100
AcDbLine
 10
252.003029399061
 20
-81.728426814631
 30
0.0
 11
252.379838052295
 21
-81.70666972155
 31
0.0
  0
LINE
  5
15C
330
1F
100
AcDbEntity
  8
RAHMEN
  6
AUSGEZOGEN
 62
    18
370
    18
100
AcDbLine
 10
252.379838052295
 20
-81.70666972155
 30
0.0
 11
252.749400385275
 21
-81.648650806667
 31
0.0
  0
LINE
  5
15D
330
1F
100
AcDbEntity
  8
RAHMEN
  6
AUSGEZOGEN
 62
    18
370
    18
100
AcDbLine
 10
252.749400385275
 20
-81.648650806667
 30
0.0
 11
253.111716398
 21
-81.554370069982
 31
0.0
  0
LINE
  5
15E
330
1F
100
AcDbEntity
  8
RAHMEN
  6
AUSGEZOGEN
 62
    18
370
    18
100
AcDbLine
 10
253.111716398
 20
-81.554370069982
 30
0.0
 11
253.459539770217
 21
-81.416575147135
 31
0.0
  0
LINE
  5
15F
330
1F
100
AcDbEntity
  8
RAHMEN
  6
AUSGEZOGEN
 62
    18
370
    18
100
AcDbLine
 10
253.459539770217
 20
-81.416575147135
 30
0.0
 11
253.792870501924
 21
-81.249770766846
 31
0.0
  0
LINE
  5
160
330
1F
100
AcDbEntity
  8
RAHMEN
  6
AUSGEZOGEN
 62
    18
370
    18
100
AcDbLine
 10
253.792870501924
 20
-81.249770766846
 30
0.0
 11
254.104462272867
 21
-81.046704564755
 31
0.0
  0
LINE
  5
161
330
1F
100
AcDbEntity
  8
RAHMEN
  6
AUSGEZOGEN
 62
    18
370
    18
100
AcDbLine
 10
254.104462272867
 20
-81.046704564755
 30
0.0
 11
254.394315083048
 21
-80.807376540863
 31
0.0
  0
LINE
  5
162
330
1F
100
AcDbEntity
  8
RAHMEN
  6
AUSGEZOGEN
 62
    18
370
    18
100
AcDbLine
 10
254.394315083048
 20
-80.807376540863
 30
0.0
 11
254.662428932465
 21
-80.546291423889
 31
0.0
  0
LINE
  5
163
330
1F
100
AcDbEntity
  8
RAHMEN
  6
AUSGEZOGEN
 62
    18
370
    18
100
AcDbLine
 10
254.662428932465
 20
-80.546291423889
 30
0.0
 11
254.894311180609
 21
-80.256196849474
 31
0.0
  0
LINE
  5
164
330
1F
100
AcDbEntity
  8
RAHMEN
  6
AUSGEZOGEN
 62
    18
370
    18
100
AcDbLine
 10
254.894311180609
 20
-80.256196849474
 30
0.0
 11
255.10445446799
 21
-79.937092817617
 31
0.0
  0
LINE
  5
165
330
1F
100
AcDbEntity
  8
RAHMEN
  6
AUSGEZOGEN
 62
    18
370
    18
100
AcDbLine
 10
255.10445446799
 20
-79.937092817617
 30
0.0
 11
255.271119833843
 21
-79.60348405704
 31
0.0
  0
LINE
  5
166
330
1F
100
AcDbEntity
  8
RAHMEN
  6
AUSGEZOGEN
 62
    18
370
    18
100
AcDbLine
 10
255.271119833843
 20
-79.60348405704
 30
0.0
 11
255.408799918679
 21
-79.255370567742
 31
0.0
  0
LINE
  5
167
330
1F
100
AcDbEntity
  8
RAHMEN
  6
AUSGEZOGEN
 62
    18
370
    18
100
AcDbLine
 10
255.408799918679
 20
-79.255370567742
 30
0.0
 11
255.503002081987
 21
-78.892752349723
 31
0.0
  0
LINE
  5
168
330
1F
100
AcDbEntity
  8
RAHMEN
  6
AUSGEZOGEN
 62
    18
370
    18
100
AcDbLine
 10
255.503002081987
 20
-78.892752349723
 30
0.0
 11
255.560972644024
 21
-78.522881767344
 31
0.0
  0
LINE
  5
169
330
1F
100
AcDbEntity
  8
RAHMEN
  6
AUSGEZOGEN
 62
    18
370
    18
100
AcDbLine
 10
255.560972644024
 20
-78.522881767344
 30
0.0
 11
255.582711604787
 21
-78.153011184964
 31
0.0
  0
LINE
  5
16A
330
1F
100
AcDbEntity
  8
RAHMEN
  6
AUSGEZOGEN
 62
    18
370
    18
100
AcDbLine
 10
254.401561403302
 20
-78.153011184964
 30
0.0
 11
254.387068762794
 21
-77.899178432351
 31
0.0
  0
LINE
  5
16B
330
1F
100
AcDbEntity
  8
RAHMEN
  6
AUSGEZOGEN
 62
    18
370
    18
100
AcDbLine
 10
254.387068762794
 20
-77.899178432351
 30
0.0
 11
254.350837161521
 21
-77.652598044098
 31
0.0
  0
LINE
  5
16C
330
1F
100
AcDbEntity
  8
RAHMEN
  6
AUSGEZOGEN
 62
    18
370
    18
100
AcDbLine
 10
254.350837161521
 20
-77.652598044098
 30
0.0
 11
254.285620279231
 21
-77.406017655845
 31
0.0
  0
LINE
  5
16D
330
1F
100
AcDbEntity
  8
RAHMEN
  6
AUSGEZOGEN
 62
    18
370
    18
100
AcDbLine
 10
254.285620279231
 20
-77.406017655845
 30
0.0
 11
254.198664436177
 21
-77.173941996313
 31
0.0
  0
LINE
  5
16E
330
1F
100
AcDbEntity
  8
RAHMEN
  6
AUSGEZOGEN
 62
    18
370
    18
100
AcDbLine
 10
254.198664436177
 20
-77.173941996313
 30
0.0
 11
254.082723312104
 21
-76.949118701142
 31
0.0
  0
LINE
  5
16F
330
1F
100
AcDbEntity
  8
RAHMEN
  6
AUSGEZOGEN
 62
    18
370
    18
100
AcDbLine
 10
254.082723312104
 20
-76.949118701142
 30
0.0
 11
253.945043227268
 21
-76.738800134691
 31
0.0
  0
LINE
  5
170
330
1F
100
AcDbEntity
  8
RAHMEN
  6
AUSGEZOGEN
 62
    18
370
    18
100
AcDbLine
 10
253.945043227268
 20
-76.738800134691
 30
0.0
 11
253.78562418167
 21
-76.54298629696
 31
0.0
  0
LINE
  5
171
330
1F
100
AcDbEntity
  8
RAHMEN
  6
AUSGEZOGEN
 62
    18
370
    18
100
AcDbLine
 10
253.78562418167
 20
-76.54298629696
 30
0.0
 11
253.611712495561
 21
-76.368929552311
 31
0.0
  0
LINE
  5
172
330
1F
100
AcDbEntity
  8
RAHMEN
  6
AUSGEZOGEN
 62
    18
370
    18
100
AcDbLine
 10
253.611712495561
 20
-76.368929552311
 30
0.0
 11
253.41606184869
 21
-76.209377536383
 31
0.0
  0
LINE
  5
173
330
1F
100
AcDbEntity
  8
RAHMEN
  6
AUSGEZOGEN
 62
    18
370
    18
100
AcDbLine
 10
253.41606184869
 20
-76.209377536383
 30
0.0
 11
253.205918561309
 21
-76.071582613536
 31
0.0
  0
LINE
  5
174
330
1F
100
AcDbEntity
  8
RAHMEN
  6
AUSGEZOGEN
 62
    18
370
    18
100
AcDbLine
 10
253.205918561309
 20
-76.071582613536
 30
0.0
 11
252.981282633419
 21
-75.95554478377
 31
0.0
  0
LINE
  5
175
330
1F
100
AcDbEntity
  8
RAHMEN
  6
AUSGEZOGEN
 62
    18
370
    18
100
AcDbLine
 10
252.981282633419
 20
-75.95554478377
 30
0.0
 11
252.74215406502
 21
-75.868516411445
 31
0.0
  0
LINE
  5
176
330
1F
100
AcDbEntity
  8
RAHMEN
  6
AUSGEZOGEN
 62
    18
370
    18
100
AcDbLine
 10
252.74215406502
 20
-75.868516411445
 30
0.0
 11
252.503025496622
 21
-75.803245132202
 31
0.0
  0
LINE
  5
177
330
1F
100
AcDbEntity
  8
RAHMEN
  6
AUSGEZOGEN
 62
    18
370
    18
100
AcDbLine
 10
252.503025496622
 20
-75.803245132202
 30
0.0
 11
252.256650607968
 21
-75.75973094604
 31
0.0
  0
LINE
  5
178
330
1F
100
AcDbEntity
  8
RAHMEN
  6
AUSGEZOGEN
 62
    18
370
    18
100
AcDbLine
 10
252.256650607968
 20
-75.75973094604
 30
0.0
 11
252.003029399061
 21
-75.752478581679
 31
0.0
  0
LINE
  5
179
330
1F
100
AcDbEntity
  8
RAHMEN
  6
AUSGEZOGEN
 62
    18
370
    18
100
AcDbLine
 10
252.003029399061
 20
-75.752478581679
 30
0.0
 11
251.749408190153
 21
-75.75973094604
 31
0.0
  0
LINE
  5
17A
330
1F
100
AcDbEntity
  8
RAHMEN
  6
AUSGEZOGEN
 62
    18
370
    18
100
AcDbLine
 10
251.749408190153
 20
-75.75973094604
 30
0.0
 11
251.5030333015
 21
-75.803245132202
 31
0.0
  0
LINE
  5
17B
330
1F
100
AcDbEntity
  8
RAHMEN
  6
AUSGEZOGEN
 62
    18
370
    18
100
AcDbLine
 10
251.5030333015
 20
-75.803245132202
 30
0.0
 11
251.263904733101
 21
-75.868516411445
 31
0.0
  0
LINE
  5
17C
330
1F
100
AcDbEntity
  8
RAHMEN
  6
AUSGEZOGEN
 62
    18
370
    18
100
AcDbLine
 10
251.263904733101
 20
-75.868516411445
 30
0.0
 11
251.024776164702
 21
-75.95554478377
 31
0.0
  0
LINE
  5
17D
330
1F
100
AcDbEntity
  8
RAHMEN
  6
AUSGEZOGEN
 62
    18
370
    18
100
AcDbLine
 10
251.024776164702
 20
-75.95554478377
 30
0.0
 11
250.800140236812
 21
-76.071582613536
 31
0.0
  0
LINE
  5
17E
330
1F
100
AcDbEntity
  8
RAHMEN
  6
AUSGEZOGEN
 62
    18
370
    18
100
AcDbLine
 10
250.800140236812
 20
-76.071582613536
 30
0.0
 11
250.589996949432
 21
-76.209377536383
 31
0.0
  0
LINE
  5
17F
330
1F
100
AcDbEntity
  8
RAHMEN
  6
AUSGEZOGEN
 62
    18
370
    18
100
AcDbLine
 10
250.589996949432
 20
-76.209377536383
 30
0.0
 11
250.39434630256
 21
-76.368929552311
 31
0.0
  0
LINE
  5
180
330
1F
100
AcDbEntity
  8
RAHMEN
  6
AUSGEZOGEN
 62
    18
370
    18
100
AcDbLine
 10
250.39434630256
 20
-76.368929552311
 30
0.0
 11
250.220434616452
 21
-76.54298629696
 31
0.0
  0
LINE
  5
181
330
1F
100
AcDbEntity
  8
RAHMEN
  6
AUSGEZOGEN
 62
    18
370
    18
100
AcDbLine
 10
250.220434616452
 20
-76.54298629696
 30
0.0
 11
250.061015570853
 21
-76.738800134691
 31
0.0
  0
LINE
  5
182
330
1F
100
AcDbEntity
  8
RAHMEN
  6
AUSGEZOGEN
 62
    18
370
    18
100
AcDbLine
 10
250.061015570853
 20
-76.738800134691
 30
0.0
 11
249.923335486017
 21
-76.949118701142
 31
0.0
  0
LINE
  5
183
330
1F
100
AcDbEntity
  8
RAHMEN
  6
AUSGEZOGEN
 62
    18
370
    18
100
AcDbLine
 10
249.923335486017
 20
-76.949118701142
 30
0.0
 11
249.807394361945
 21
-77.173941996313
 31
0.0
  0
LINE
  5
184
330
1F
100
AcDbEntity
  8
RAHMEN
  6
AUSGEZOGEN
 62
    18
370
    18
100
AcDbLine
 10
249.807394361945
 20
-77.173941996313
 30
0.0
 11
249.720438518891
 21
-77.406017655845
 31
0.0
  0
LINE
  5
185
330
1F
100
AcDbEntity
  8
RAHMEN
  6
AUSGEZOGEN
 62
    18
370
    18
100
AcDbLine
 10
249.720438518891
 20
-77.406017655845
 30
0.0
 11
249.6552216366
 21
-77.652598044098
 31
0.0
  0
LINE
  5
186
330
1F
100
AcDbEntity
  8
RAHMEN
  6
AUSGEZOGEN
 62
    18
370
    18
100
AcDbLine
 10
249.6552216366
 20
-77.652598044098
 30
0.0
 11
249.618990035328
 21
-77.899178432351
 31
0.0
  0
LINE
  5
187
330
1F
100
AcDbEntity
  8
RAHMEN
  6
AUSGEZOGEN
 62
    18
370
    18
100
AcDbLine
 10
249.618990035328
 20
-77.899178432351
 30
0.0
 11
249.604497394819
 21
-78.153011184964
 31
0.0
  0
LINE
  5
188
330
1F
100
AcDbEntity
  8
RAHMEN
  6
AUSGEZOGEN
 62
    18
370
    18
100
AcDbLine
 10
249.604497394819
 20
-78.153011184964
 30
0.0
 11
249.618990035328
 21
-78.399591573217
 31
0.0
  0
LINE
  5
189
330
1F
100
AcDbEntity
  8
RAHMEN
  6
AUSGEZOGEN
 62
    18
370
    18
100
AcDbLine
 10
249.618990035328
 20
-78.399591573217
 30
0.0
 11
249.6552216366
 21
-78.64617196147
 31
0.0
  0
LINE
  5
18A
330
1F
100
AcDbEntity
  8
RAHMEN
  6
AUSGEZOGEN
 62
    18
370
    18
100
AcDbLine
 10
249.6552216366
 20
-78.64617196147
 30
0.0
 11
249.720438518891
 21
-78.892752349723
 31
0.0
  0
LINE
  5
18B
330
1F
100
AcDbEntity
  8
RAHMEN
  6
AUSGEZOGEN
 62
    18
370
    18
100
AcDbLine
 10
249.720438518891
 20
-78.892752349723
 30
0.0
 11
249.807394361945
 21
-79.124828009255
 31
0.0
  0
LINE
  5
18C
330
1F
100
AcDbEntity
  8
RAHMEN
  6
AUSGEZOGEN
 62
    18
370
    18
100
AcDbLine
 10
249.807394361945
 20
-79.124828009255
 30
0.0
 11
249.923335486017
 21
-79.349651304427
 31
0.0
  0
LINE
  5
18D
330
1F
100
AcDbEntity
  8
RAHMEN
  6
AUSGEZOGEN
 62
    18
370
    18
100
AcDbLine
 10
249.923335486017
 20
-79.349651304427
 30
0.0
 11
250.061015570853
 21
-79.559969870878
 31
0.0
  0
LINE
  5
18E
330
1F
100
AcDbEntity
  8
RAHMEN
  6
AUSGEZOGEN
 62
    18
370
    18
100
AcDbLine
 10
250.061015570853
 20
-79.559969870878
 30
0.0
 11
250.220434616452
 21
-79.755783708608
 31
0.0
  0
LINE
  5
18F
330
1F
100
AcDbEntity
  8
RAHMEN
  6
AUSGEZOGEN
 62
    18
370
    18
100
AcDbLine
 10
250.220434616452
 20
-79.755783708608
 30
0.0
 11
250.39434630256
 21
-79.937092817617
 31
0.0
  0
LINE
  5
190
330
1F
100
AcDbEntity
  8
RAHMEN
  6
AUSGEZOGEN
 62
    18
370
    18
100
AcDbLine
 10
250.39434630256
 20
-79.937092817617
 30
0.0
 11
250.589996949432
 21
-80.089392469185
 31
0.0
  0
LINE
  5
191
330
1F
100
AcDbEntity
  8
RAHMEN
  6
AUSGEZOGEN
 62
    18
370
    18
100
AcDbLine
 10
250.589996949432
 20
-80.089392469185
 30
0.0
 11
250.800140236812
 21
-80.227187392033
 31
0.0
  0
LINE
  5
192
330
1F
100
AcDbEntity
  8
RAHMEN
  6
AUSGEZOGEN
 62
    18
370
    18
100
AcDbLine
 10
250.800140236812
 20
-80.227187392033
 30
0.0
 11
251.024776164702
 21
-80.343225221799
 31
0.0
  0
LINE
  5
193
330
1F
100
AcDbEntity
  8
RAHMEN
  6
AUSGEZOGEN
 62
    18
370
    18
100
AcDbLine
 10
251.024776164702
 20
-80.343225221799
 30
0.0
 11
251.263904733101
 21
-80.430253594123
 31
0.0
  0
LINE
  5
194
330
1F
100
AcDbEntity
  8
RAHMEN
  6
AUSGEZOGEN
 62
    18
370
    18
100
AcDbLine
 10
251.263904733101
 20
-80.430253594123
 30
0.0
 11
251.5030333015
 21
-80.495524873367
 31
0.0
  0
LINE
  5
195
330
1F
100
AcDbEntity
  8
RAHMEN
  6
AUSGEZOGEN
 62
    18
370
    18
100
AcDbLine
 10
251.5030333015
 20
-80.495524873367
 30
0.0
 11
251.749408190153
 21
-80.539039059529
 31
0.0
  0
LINE
  5
196
330
1F
100
AcDbEntity
  8
RAHMEN
  6
AUSGEZOGEN
 62
    18
370
    18
100
AcDbLine
 10
251.749408190153
 20
-80.539039059529
 30
0.0
 11
252.003029399061
 21
-80.55354378825
 31
0.0
  0
LINE
  5
197
330
1F
100
AcDbEntity
  8
RAHMEN
  6
AUSGEZOGEN
 62
    18
370
    18
100
AcDbLine
 10
252.003029399061
 20
-80.55354378825
 30
0.0
 11
252.256650607968
 21
-80.539039059529
 31
0.0
  0
LINE
  5
198
330
1F
100
AcDbEntity
  8
RAHMEN
  6
AUSGEZOGEN
 62
    18
370
    18
100
AcDbLine
 10
252.256650607968
 20
-80.539039059529
 30
0.0
 11
252.503025496622
 21
-80.495524873367
 31
0.0
  0
LINE
  5
199
330
1F
100
AcDbEntity
  8
RAHMEN
  6
AUSGEZOGEN
 62
    18
370
    18
100
AcDbLine
 10
252.503025496622
 20
-80.495524873367
 30
0.0
 11
252.74215406502
 21
-80.430253594123
 31
0.0
  0
LINE
  5
19A
330
1F
100
AcDbEntity
  8
RAHMEN
  6
AUSGEZOGEN
 62
    18
370
    18
100
AcDbLine
 10
252.74215406502
 20
-80.430253594123
 30
0.0
 11
252.981282633419
 21
-80.343225221799
 31
0.0
  0
LINE
  5
19B
330
1F
100
AcDbEntity
  8
RAHMEN
  6
AUSGEZOGEN
 62
    18
370
    18
100
AcDbLine
 10
252.981282633419
 20
-80.343225221799
 30
0.0
 11
253.205918561309
 21
-80.227187392033
 31
0.0
  0
LINE
  5
19C
330
1F
100
AcDbEntity
  8
RAHMEN
  6
AUSGEZOGEN
 62
    18
370
    18
100
AcDbLine
 10
253.205918561309
 20
-80.227187392033
 30
0.0
 11
253.41606184869
 21
-80.089392469185
 31
0.0
  0
LINE
  5
19D
330
1F
100
AcDbEntity
  8
RAHMEN
  6
AUSGEZOGEN
 62
    18
370
    18
100
AcDbLine
 10
253.41606184869
 20
-80.089392469185
 30
0.0
 11
253.611712495561
 21
-79.937092817617
 31
0.0
  0
LINE
  5
19E
330
1F
100
AcDbEntity
  8
RAHMEN
  6
AUSGEZOGEN
 62
    18
370
    18
100
AcDbLine
 10
253.611712495561
 20
-79.937092817617
 30
0.0
 11
253.78562418167
 21
-79.755783708608
 31
0.0
  0
LINE
  5
19F
330
1F
100
AcDbEntity
  8
RAHMEN
  6
AUSGEZOGEN
 62
    18
370
    18
100
AcDbLine
 10
253.78562418167
 20
-79.755783708608
 30
0.0
 11
253.945043227268
 21
-79.559969870878
 31
0.0
  0
LINE
  5
1A0
330
1F
100
AcDbEntity
  8
RAHMEN
  6
AUSGEZOGEN
 62
    18
370
    18
100
AcDbLine
 10
253.945043227268
 20
-79.559969870878
 30
0.0
 11
254.082723312104
 21
-79.349651304427
 31
0.0
  0
LINE
  5
1A1
330
1F
100
AcDbEntity
  8
RAHMEN
  6
AUSGEZOGEN
 62
    18
370
    18
100
AcDbLine
 10
254.082723312104
 20
-79.349651304427
 30
0.0
 11
254.198664436177
 21
-79.124828009255
 31
0.0
  0
LINE
  5
1A2
330
1F
100
AcDbEntity
  8
RAHMEN
  6
AUSGEZOGEN
 62
    18
370
    18
100
AcDbLine
 10
254.198664436177
 20
-79.124828009255
 30
0.0
 11
254.285620279231
 21
-78.892752349723
 31
0.0
  0
LINE
  5
1A3
330
1F
100
AcDbEntity
  8
RAHMEN
  6
AUSGEZOGEN
 62
    18
370
    18
100
AcDbLine
 10
254.285620279231
 20
-78.892752349723
 30
0.0
 11
254.350837161521
 21
-78.64617196147
 31
0.0
  0
LINE
  5
1A4
330
1F
100
AcDbEntity
  8
RAHMEN
  6
AUSGEZOGEN
 62
    18
370
    18
100
AcDbLine
 10
254.350837161521
 20
-78.64617196147
 30
0.0
 11
254.387068762794
 21
-78.399591573217
 31
0.0
  0
LINE
  5
1A5
330
1F
100
AcDbEntity
  8
RAHMEN
  6
AUSGEZOGEN
 62
    18
370
    18
100
AcDbLine
 10
254.387068762794
 20
-78.399591573217
 30
0.0
 11
254.401561403302
 21
-78.153011184964
 31
0.0
  0
LINE
  5
1A6
330
1F
100
AcDbEntity
  8
RAHMEN
  6
AUSGEZOGEN
 62
    18
370
    18
100
AcDbLine
 10
238.401686281351
 20
-80.55354378825
 30
0.0
 11
238.401686281351
 21
-75.752478581679
 31
0.0
  0
LINE
  5
1A7
330
1F
100
AcDbEntity
  8
RAHMEN
  6
AUSGEZOGEN
 62
    18
370
    18
100
AcDbLine
 10
246.003076228329
 20
-81.728426814631
 30
0.0
 11
246.003076228329
 21
-74.570343190937
 31
0.0
  0
LINE
  5
1A8
330
1F
100
AcDbEntity
  8
RAHMEN
  6
AUSGEZOGEN
 62
    18
370
    18
100
AcDbLine
 10
238.401686281351
 20
-75.752478581679
 30
0.0
 11
246.003076228329
 21
-74.570343190937
 31
0.0
  0
LINE
  5
1A9
330
1F
100
AcDbEntity
  8
RAHMEN
  6
AUSGEZOGEN
 62
    18
370
    18
100
AcDbLine
 10
246.003076228329
 20
-81.728426814631
 30
0.0
 11
238.401686281351
 21
-80.55354378825
 31
0.0
  0
LINE
  5
1AA
330
1F
100
AcDbEntity
  8
RAHMEN
  6
DASHDOT
 62
    16
370
    18
100
AcDbLine
 10
252.003029399061
 20
-82.018521389046
 30
0.0
 11
252.003029399061
 21
-74.200472608558
 31
0.0
  0
LINE
  5
1AB
330
1F
100
AcDbEntity
  8
RAHMEN
  6
DASHDOT
 62
    16
370
    18
100
AcDbLine
 10
248.017553259082
 20
-78.153011184964
 30
0.0
 11
255.966766578276
 21
-78.153011184964
 31
0.0
  0
LINE
  5
1AC
330
1F
100
AcDbEntity
  8
RAHMEN
  6
DASHDOT
 62
    16
370
    18
100
AcDbLine
 10
238.039370268626
 20
-78.153011184964
 30
0.0
 11
246.343653280291
 21
-78.153011184964
 31
0.0
  0
TEXT
  5
1AD
330
1F
100
AcDbEntity
  8
RAHMENSCHRIFT
  6
AUSGEZOGEN
 62
    18
370
    18
100
AcDbText
 10
301.096880976536
 20
-78.837229838866
 30
0.0
 40
1.411111111111
  1
Bartels Systembeschläge GmbH
 41
1.107243789975
  7
Arial
 72
     5
 11
332.60981430987
 21
-78.837229838866
 31
0.0
100
AcDbText
  0
TEXT
  5
1AE
330
1F
100
AcDbEntity
  8
RAHMENSCHRIFT
  6
AUSGEZOGEN
 62
    18
370
    18
100
AcDbText
 10
301.096880976536
 20
-80.812785394422
 30
0.0
 40
1.411111111111
  1
Gewerbegebiet Echternhagen 2
 41
1.110671335059
  7
Arial
 72
     5
 11
331.983280976536
 21
-80.812785394422
 31
0.0
100
AcDbText
  0
TEXT
  5
1AF
330
1F
100
AcDbEntity
  8
RAHMENSCHRIFT
  6
AUSGEZOGEN
 62
    18
370
    18
100
AcDbText
 10
301.096880976536
 20
-82.788340949978
 30
0.0
 40
1.411111111111
  1
D-32689 Kalletal-Hohenhausen
 41
1.11230935141
  7
Arial
 72
     5
 11
331.661547643203
 21
-82.788340949978
 31
0.0
100
AcDbText
  0
TEXT
  5
1B0
330
1F
100
AcDbEntity
  8
RAHMENSCHRIFT
  6
AUSGEZOGEN
 62
    18
370
    18
100
AcDbText
 10
301.09198286382
 20
-86.398885392953
 30
0.0
 40
1.411111111111
  1
Telefon +49 (0) 52 64 / 64 73 - 0
 41
1.132971032557
  7
Arial
 72
     5
 11
333.158071752709
 21
-86.398885392953
 31
0.0
100
AcDbText
  0
TEXT
  5
1B1
330
1F
100
AcDbEntity
  8
RAHMENSCHRIFT
  6
AUSGEZOGEN
 62
    18
370
    18
100
AcDbText
 10
301.09198286382
 20
-88.374440948509
 30
0.0
 40
1.411111111111
  1
Telefax +49 (0) 52 64 / 64 73 - 30
 41
1.132353649723
  7
Arial
 72
     5
 11
334.255916197153
 21
-88.374440948509
 31
0.0
100
AcDbText
  0
LINE
  5
1B2
330
1F
100
AcDbEntity
  8
RAHMEN
  6
AUSGEZOGEN
 62
    18
370
    18
100
AcDbLine
 10
334.953790480652
 20
-113.153011184964
 30
0.0
 11
149.953790480652
 21
-113.153011184964
 31
0.0
  0
LINE
  5
1B3
330
1F
100
AcDbEntity
  8
RAHMEN
  6
AUSGEZOGEN
 62
    18
370
    18
100
AcDbLine
 10
257.090129535211
 20
-108.153011184964
 30
0.0
 11
149.953790480652
 21
-108.153011184964
 31
0.0
  0
LINE
  5
1B4
330
1F
100
AcDbEntity
  8
RAHMEN
  6
AUSGEZOGEN
 62
    18
370
    18
100
AcDbLine
 10
257.090129535211
 20
-103.153011184964
 30
0.0
 11
149.953790480652
 21
-103.153011184964
 31
0.0
  0
LINE
  5
1B5
330
1F
100
AcDbEntity
  8
RAHMEN
  6
AUSGEZOGEN
 62
    18
370
    18
100
AcDbLine
 10
257.090129535211
 20
-98.153011184964
 30
0.0
 11
149.953790480652
 21
-98.153011184964
 31
0.0
  0
LINE
  5
1B6
330
1F
100
AcDbEntity
  8
RAHMEN
  6
AUSGEZOGEN
 62
    18
370
    18
100
AcDbLine
 10
334.953790480652
 20
-93.153011184964
 30
0.0
 11
149.953790480652
 21
-93.153011184964
 31
0.0
  0
LINE
  5
1B7
330
1F
100
AcDbEntity
  8
RAHMEN
  6
AUSGEZOGEN
 62
    18
370
    18
100
AcDbLine
 10
209.890129535211
 20
-88.153011184964
 30
0.0
 11
149.953790480652
 21
-88.153011184964
 31
0.0
  0
LINE
  5
1B8
330
1F
100
AcDbEntity
  8
RAHMEN
  6
AUSGEZOGEN
 62
    18
370
    18
100
AcDbLine
 10
257.090129535211
 20
-83.153011184964
 30
0.0
 11
149.953790480652
 21
-83.153011184964
 31
0.0
  0
LINE
  5
1B9
330
1F
100
AcDbEntity
  8
RAHMEN
  6
AUSGEZOGEN
 62
    18
370
    18
100
AcDbLine
 10
236.890129535211
 20
-78.153011184964
 30
0.0
 11
149.953790480652
 21
-78.153011184964
 31
0.0
  0
LINE
  5
1BA
330
1F
100
AcDbEntity
  8
RAHMEN
  6
AUSGEZOGEN
 62
    18
370
    18
100
AcDbLine
 10
334.953790480652
 20
-73.153011184964
 30
0.0
 11
149.953790480652
 21
-73.153011184964
 31
0.0
  0
LINE
  5
1BB
330
1F
100
AcDbEntity
  8
RAHMEN
  6
AUSGEZOGEN
 62
    18
370
    18
100
AcDbLine
 10
257.090129535211
 20
-73.153011184964
 30
0.0
 11
257.090129535211
 21
-118.153011184964
 31
0.0
  0
LINE
  5
1BC
330
1F
100
AcDbEntity
  8
RAHMEN
  6
AUSGEZOGEN
 62
    18
370
    18
100
AcDbLine
 10
156.679462763031
 20
-118.153011184964
 30
0.0
 11
156.679462763031
 21
-73.153011184964
 31
0.0
  0
LINE
  5
1BD
330
1F
100
AcDbEntity
  8
RAHMEN
  6
AUSGEZOGEN
 62
    18
370
    18
100
AcDbLine
 10
236.890129535211
 20
-93.153011184964
 30
0.0
 11
236.890129535211
 21
-113.153011184964
 31
0.0
  0
LINE
  5
1BE
330
1F
100
AcDbEntity
  8
RAHMEN
  6
AUSGEZOGEN
 62
    18
370
    18
100
AcDbLine
 10
236.890129535211
 20
-73.153011184964
 30
0.0
 11
236.890129535211
 21
-83.153011184964
 31
0.0
  0
LINE
  5
1BF
330
1F
100
AcDbEntity
  8
RAHMEN
  6
AUSGEZOGEN
 62
    18
370
    18
100
AcDbLine
 10
223.390129535211
 20
-93.153011184964
 30
0.0
 11
223.390129535211
 21
-113.153011184964
 31
0.0
  0
LINE
  5
1C0
330
1F
100
AcDbEntity
  8
RAHMEN
  6
AUSGEZOGEN
 62
    18
370
    18
100
AcDbLine
 10
209.890129535211
 20
-73.153011184964
 30
0.0
 11
209.890129535211
 21
-118.153011184964
 31
0.0
  0
LINE
  5
1C1
330
1F
100
AcDbEntity
  8
RAHMEN
  6
AUSGEZOGEN
 62
    18
370
    18
100
AcDbLine
 10
202.890129535211
 20
-73.153011184964
 30
0.0
 11
202.890129535211
 21
-118.153011184964
 31
0.0
  0
LINE
  5
1C2
330
1F
100
AcDbEntity
  8
RAHMEN
  6
AUSGEZOGEN
 62
    18
370
    18
100
AcDbLine
 10
190.867144984896
 20
-73.153011184964
 30
0.0
 11
190.867144984896
 21
-118.153011184964
 31
0.0
  0
LINE
  5
1C3
330
1F
100
AcDbEntity
  8
RAHMEN
  6
AUSGEZOGEN
 62
    18
370
    18
100
AcDbLine
 10
304.253723607405
 20
-113.153011184964
 30
0.0
 11
304.253723607405
 21
-118.153011184964
 31
0.0
  0
TEXT
  5
1C4
330
1F
100
AcDbEntity
  8
RAHMENSCHRIFT
  6
AUSGEZOGEN
 62
     5
370
    18
100
AcDbText
 10
258.09198286382
 20
-103.733011184964
 30
0.0
 40
4.233333333333
  1
Schließblech Nr.64
 41
0.972945466882
  7
Arial
 72
     5
 11
306.65678286382
 21
-103.733011184964
 31
0.0
100
AcDbText
  0
TEXT
  5
1C5
330
1F
100
AcDbEntity
  8
RAHMENSCHRIFT
  6
AUSGEZOGEN
 62
     5
370
    18
100
AcDbText
 10
258.094899079741
 20
-110.133011184964
 30
0.0
 40
4.233333333333
  1
_
 41
0.974226804124
  7
Arial
 72
     5
 11
261.295299079741
 21
-110.133011184964
 31
0.0
100
AcDbText
  0
TEXT
  5
1C6
330
1F
100
AcDbEntity
  8
RAHMENSCHRIFT
  6
AUSGEZOGEN
 62
     5
370
    18
100
AcDbText
 10
284.694575443135
 20
-116.818011184964
 30
0.0
 40
2.116666666667
  1
-
 41
0.967741935484
  7
Arial
 72
     5
 11
285.647075443135
 21
-116.818011184964
 31
0.0
100
AcDbText
  0
TEXT
  5
1C7
330
1F
100
AcDbEntity
  8
RAHMENSCHRIFT
  6
AUSGEZOGEN
 62
     5
370
    18
100
AcDbText
 10
327.461737758646
 20
-116.818011184964
 30
0.0
 40
2.116666666667
  1
1:1
 41
1.34278357029
  7
Arial
 72
     5
 11
332.975654692779
 21
-116.818011184964
 31
0.0
100
AcDbText
  0
TEXT
  5
1C8
330
1F
100
AcDbEntity
  8
RAHMENSCHRIFT
  6
AUSGEZOGEN
 62
     5
370
    18
100
AcDbText
 10
210.700708940802
 20
-90.802293463849
 30
0.0
 40
2.116666666667
  1
-
 41
1.129032334974
  7
Arial
 72
     5
 11
211.8119590165
 21
-90.802293463849
 31
0.0
100
AcDbText
  0
TEXT
  5
1C9
330
1F
100
AcDbEntity
  8
RAHMENSCHRIFT
  6
AUSGEZOGEN
 62
     5
370
    18
100
AcDbText
 10
237.277264729991
 20
-102.077210668169
 30
0.0
 40
2.469444444444
  1
Meinzer
 41
1.214746172442
  7
Arial
 72
     5
 11
252.168014729991
 21
-102.077210668169
 31
0.0
100
AcDbText
  0
TEXT
  5
1CA
330
1F
100
AcDbEntity
  8
RAHMENSCHRIFT
  6
AUSGEZOGEN
 62
     5
370
    18
100
AcDbText
 10
224.225802266729
 20
-107.090282996896
 30
0.0
 40
2.116666666667
  1
-
 41
1.129032334974
  7
Arial
 72
     5
 11
225.337052342427
 21
-107.090282996896
 31
0.0
100
AcDbText
  0
TEXT
  5
1CB
330
1F
100
AcDbEntity
  8
RAHMENSCHRIFT
  6
AUSGEZOGEN
 62
     5
370
    18
100
AcDbText
 10
237.381136867447
 20
-106.600146191507
 30
0.0
 40
2.116666666667
  1
-
 41
1.129032334974
  7
Arial
 72
     5
 11
238.492386943145
 21
-106.600146191507
 31
0.0
100
AcDbText
  0
TEXT
  5
1CC
330
1F
100
AcDbEntity
  8
RAHMENSCHRIFT
  6
AUSGEZOGEN
 62
     5
370
    18
100
AcDbText
 10
237.413629204227
 20
-111.674975039704
 30
0.0
 40
2.116666666667
  1
-
 41
1.129032334974
  7
Arial
 72
     5
 11
238.524879279925
 21
-111.674975039704
 31
0.0
100
AcDbText
  0
TEXT
  5
1CD
330
1F
100
AcDbEntity
  8
RAHMENSCHRIFT
  6
AUSGEZOGEN
 62
     5
370
    18
100
AcDbText
 10
224.302752008978
 20
-112.093838391234
 30
0.0
 40
2.116666666667
  1
-
 41
1.129032334974
  7
Arial
 72
     5
 11
225.414002084676
 21
-112.093838391234
 31
0.0
100
AcDbText
  0
TEXT
  5
1CE
330
1F
100
AcDbEntity
  8
RAHMENSCHRIFT
  6
AUSGEZOGEN
 62
     5
370
    18
100
AcDbText
 10
212.199691346195
 20
-97.054985247176
 30
0.0
 40
2.469444444444
  1
2022
 41
1.167525809774
  7
Arial
 72
     5
 11
221.148958293241
 21
-97.054985247176
 31
0.0
100
AcDbText
  0
TEXT
  5
1CF
330
1F
100
AcDbEntity
  8
RAHMENSCHRIFT
  6
AUSGEZOGEN
 62
     5
370
    18
100
AcDbText
 10
224.301134519856
 20
-101.975727193577
 30
0.0
 40
2.469444444444
  1
04.01.
 41
1.231958799465
  7
Arial
 72
     5
 11
236.105079314776
 21
-101.975727193577
 31
0.0
100
AcDbText
  0
TEXT
  5
1D0
330
1F
100
AcDbEntity
  8
RAHMENSCHRIFT
  6
AUSGEZOGEN
 62
     5
370
    18
100
AcDbText
 10
224.03198286382
 20
-116.818011184964
 30
0.0
 40
2.116666666667
  1
03661900.PRT
 41
0.974009373669
  7
Arial
 72
     5
 11
243.38678286382
 21
-116.818011184964
 31
0.0
100
AcDbText
  0
TEXT
  5
1D1
330
1F
100
AcDbEntity
  8
RAHMENSCHRIFT
  6
AUSGEZOGEN
 62
    18
370
    18
100
AcDbText
 10
210.608172566515
 20
-76.666745871802
 30
0.0
 40
1.6
  1
Maße / Dimensions in mm
 41
0.892634630806
  7
Arial
 72
     5
 11
233.760972566515
 21
-76.666745871802
 31
0.0
100
AcDbText
  0
TEXT
  5
1D2
330
1F
100
AcDbEntity
  8
RAHMENSCHRIFT
  6
AUSGEZOGEN
 62
    18
370
    18
100
AcDbText
 10
210.505817798357
 20
-81.515529343911
 30
0.0
 40
1.600000023842
  1
Format
 41
0.891992743694
  7
Arial
 72
     5
 11
216.815417764168
 21
-81.515529343911
 31
0.0
100
AcDbText
  0
TEXT
  5
1D3
330
1F
100
AcDbEntity
  8
RAHMENSCHRIFT
  6
AUSGEZOGEN
 62
    18
370
    18
100
AcDbText
 10
210.605050993771
 20
-86.180992092815
 30
0.0
 40
1.600000023842
  1
Werkstoff / Material
 41
0.89204023805
  7
Arial
 72
     5
 11
227.765050900787
 21
-86.180992092815
 31
0.0
100
AcDbText
  0
TEXT
  5
1D4
330
1F
100
AcDbEntity
  8
RAHMENSCHRIFT
  6
AUSGEZOGEN
 62
    18
370
    18
100
AcDbText
 10
224.18278562261
 20
-96.606201496589
 30
0.0
 40
1.600000023842
  1
Datum / Date
 41
0.893591128626
  7
Arial
 72
     5
 11
235.939585558905
 21
-96.606201496589
 31
0.0
100
AcDbText
  0
TEXT
  5
1D5
330
1F
100
AcDbEntity
  8
RAHMENSCHRIFT
  6
AUSGEZOGEN
 62
    18
370
    18
100
AcDbText
 10
244.354222587121
 20
-96.676509426973
 30
0.0
 40
1.600000023842
  1
Name
 41
0.893768448129
  7
Arial
 72
     5
 11
249.678222558272
 21
-96.676509426973
 31
0.0
100
AcDbText
  0
TEXT
  5
1D6
330
1F
100
AcDbEntity
  8
RAHMENSCHRIFT
  6
AUSGEZOGEN
 62
    18
370
    18
100
AcDbText
 10
210.449293043585
 20
-101.381678241825
 30
0.0
 40
1.600000023842
  1
gez. / drawn
 41
0.892673926357
  7
Arial
 72
     5
 11
221.308492984744
 21
-101.381678241825
 31
0.0
100
AcDbText
  0
TEXT
  5
1D7
330
1F
100
AcDbEntity
  8
RAHMENSCHRIFT
  6
AUSGEZOGEN
 62
    18
370
    18
100
AcDbText
 10
210.449293043585
 20
-106.535831033167
 30
0.0
 40
1.600000023842
  1
gepr./checked
 41
0.892095339464
  7
Arial
 72
     5
 11
222.962892975779
 21
-106.535831033167
 31
0.0
100
AcDbText
  0
TEXT
  5
1D8
330
1F
100
AcDbEntity
  8
RAHMENSCHRIFT
  6
AUSGEZOGEN
 62
    18
370
    18
100
AcDbText
 10
210.408073100876
 20
-111.66364037691
 30
0.0
 40
1.600000023842
  1
Norm / Std.
 41
0.892902659289
  7
Arial
 72
     5
 11
220.49287304623
 21
-111.66364037691
 31
0.0
100
AcDbText
  0
TEXT
  5
1D9
330
1F
100
AcDbEntity
  8
RAHMENSCHRIFT
  6
AUSGEZOGEN
 62
    18
370
    18
100
AcDbText
 10
210.697757698254
 20
-116.673011177812
 30
0.0
 40
1.600000023842
  1
Datei / File
 41
0.892070136273
  7
Arial
 72
     5
 11
220.21935764666
 21
-116.673011177812
 31
0.0
100
AcDbText
  0
TEXT
  5
1DA
330
1F
100
AcDbEntity
  8
RAHMENSCHRIFT
  6
AUSGEZOGEN
 62
    18
370
    18
100
AcDbText
 10
203.74188784918
 20
-116.673011177812
 30
0.0
 40
1.600000023842
  1
Name
 41
0.893768448129
  7
Arial
 72
     5
 11
209.065887820331
 21
-116.673011177812
 31
0.0
100
AcDbText
  0
TEXT
  5
1DB
330
1F
100
AcDbEntity
  8
RAHMENSCHRIFT
  6
AUSGEZOGEN
 62
    18
370
    18
100
AcDbText
 10
190.867144984896
 20
-116.673011177812
 30
0.0
 40
1.600000023842
  1
Datum / Date
 41
0.893591128626
  7
Arial
 72
     5
 11
202.62394492119
 21
-116.673011177812
 31
0.0
100
AcDbText
  0
TEXT
  5
1DC
330
1F
100
AcDbEntity
  8
RAHMENSCHRIFT
  6
AUSGEZOGEN
 62
    18
370
    18
100
AcDbText
 10
158.39198286382
 20
-116.673011177812
 30
0.0
 40
1.600000023842
  1
Änderung / Description of Change
 41
0.892556462244
  7
Arial
 72
     5
 11
188.417582701123
 21
-116.673011177812
 31
0.0
100
AcDbText
  0
TEXT
  5
1DD
330
1F
100
AcDbEntity
  8
RAHMENSCHRIFT
  6
AUSGEZOGEN
 62
    18
370
    18
100
AcDbText
 10
150.808716670681
 20
-116.673011177812
 30
0.0
 40
1.600000023842
  1
Index
 41
0.892501446422
  7
Arial
 72
     5
 11
155.683916644264
 21
-116.673011177812
 31
0.0
100
AcDbText
  0
TEXT
  5
1DE
330
1F
100
AcDbEntity
  8
RAHMENSCHRIFT
  6
AUSGEZOGEN
 62
    18
370
    18
100
AcDbText
 10
258.21525078744
 20
-116.673011177812
 30
0.0
 40
1.600000023842
  1
Zeichn.-Nr. / Drawing-No.
 41
0.892277046901
  7
Arial
 72
     5
 11
280.804850665036
 21
-116.673011177812
 31
0.0
100
AcDbText
  0
TEXT
  5
1DF
330
1F
100
AcDbEntity
  8
RAHMENSCHRIFT
  6
AUSGEZOGEN
 62
    18
370
    18
100
AcDbText
 10
304.841433836005
 20
-116.673011177812
 30
0.0
 40
1.600000023842
  1
Maßstab / Scale
 41
0.892216144488
  7
Arial
 72
     5
 11
319.238233757994
 21
-116.673011177812
 31
0.0
100
AcDbText
  0
TEXT
  5
1E0
330
1F
100
AcDbEntity
  8
RAHMENSCHRIFT
  6
AUSGEZOGEN
 62
    18
370
    18
100
AcDbText
 10
258.307159729943
 20
-96.739440176453
 30
0.0
 40
1.600000023842
  1
Benennung / Title
 41
0.892367440734
  7
Arial
 72
     5
 11
273.927159645304
 21
-96.739440176453
 31
0.0
100
AcDbText
  0
TEXT
  5
1E1
330
1F
100
AcDbEntity
  8
RAHMENSCHRIFT
  6
AUSGEZOGEN
 62
     5
370
    18
100
AcDbText
 10
222.885060305625
 20
-81.962481872011
 30
0.0
 40
2.469444513321
  1
A3
 41
0.892501378389
  7
Arial
 72
     5
 11
226.647258658439
 21
-81.962481872011
 31
0.0
100
AcDbText
  0
LINE
  5
1E2
330
1F
100
AcDbEntity
  8
RAHMEN
  6
AUSGEZOGEN
 62
    18
370
    18
100
AcDbLine
 10
149.953790480652
 20
-118.153011184964
 30
0.0
 11
149.953790480652
 21
-73.153011184964
 31
0.0
  0
TEXT
  5
1E3
330
1F
100
AcDbEntity
  8
RAHMENSCHRIFT
  6
AUSGEZOGEN
 62
     1
370
    18
100
AcDbText
 10
53.730012495314
 20
-88.107306097867
 30
0.0
 40
2.295118588377
  1
Diese Unterlage ist unser Eigentum. Jede Vervielfältigung,
 41
1.032610467212
  7
Arial
 72
     5
 11
139.224074995314
 21
-88.107306097867
 31
0.0
100
AcDbText
  0
TEXT
  5
1E4
330
1F
100
AcDbEntity
  8
RAHMENSCHRIFT
  6
AUSGEZOGEN
 62
     1
370
    18
100
AcDbText
 10
53.730012495314
 20
-91.77949589399
 30
0.0
 40
2.295118588377
  1
Verwertung oder Mitteilung an dritte Personen ist strafbar,
 41
1.032483894173
  7
Arial
 72
     5
 11
138.478996870314
 21
-91.77949589399
 31
0.0
100
AcDbText
  0
TEXT
  5
1E5
330
1F
100
AcDbEntity
  8
RAHMENSCHRIFT
  6
AUSGEZOGEN
 62
     1
370
    18
100
AcDbText
 10
53.730012495314
 20
-95.451685690112
 30
0.0
 40
2.295118588377
  1
verpflichtet zu Schadensersatz und wird strafrechtlich verfolgt.
 41
1.032139161196
  7
Arial
 72
     5
 11
144.512668745314
 21
-95.451685690112
 31
0.0
100
AcDbText
  0
TEXT
  5
1E6
330
1F
100
AcDbEntity
  8
RAHMENSCHRIFT
  6
AUSGEZOGEN
 62
     1
370
    18
100
AcDbText
 10
53.730012495314
 20
-99.123875486235
 30
0.0
 40
2.295118588377
  1
(Urheberrechtsgesetz. Gesetz gegen unlauteren Wettbewerb
 41
1.032708044971
  7
Arial
 72
     5
 11
143.095559370314
 21
-99.123875486235
 31
0.0
100
AcDbText
  0
TEXT
  5
1E7
330
1F
100
AcDbEntity
  8
RAHMENSCHRIFT
  6
AUSGEZOGEN
 62
     1
370
    18
100
AcDbText
 10
53.730012495314
 20
-102.796065282357
 30
0.0
 40
2.295118588377
  1
BGB). Alle Rechte für den Fall der Patenterteilung (§ 7 Abs. 1
 41
1.032464272181
  7
Arial
 72
     5
 11
143.811418745314
 21
-102.796065282357
 31
0.0
100
AcDbText
  0
TEXT
  5
1E8
330
1F
100
AcDbEntity
  8
RAHMENSCHRIFT
  6
AUSGEZOGEN
 62
     1
370
    18
100
AcDbText
 10
53.730012495314
 20
-106.46825507848
 30
0.0
 40
2.295118588377
  1
P.G.) oder der GM-Eintragung (§ 5 Abs. 4 GMG) vorbehalten.
 41
1.032409604601
  7
Arial
 72
     5
 11
143.986731245314
 21
-106.46825507848
 31
0.0
100
AcDbText
  0
TEXT
  5
1E9
330
1F
100
AcDbEntity
  8
RAHMENSCHRIFT
  6
AUSGEZOGEN
 62
     1
370
    18
100
AcDbText
 10
53.730012495314
 20
-110.140444874602
 30
0.0
 40
2.295118588377
  1
Schutzvermerk nach DIN ISO 16016 beachten.
 41
1.032932637447
  7
Arial
 72
     5
 11
122.700871870314
 21
-110.140444874602
 31
0.0
100
AcDbText
  0
TEXT
  5
1EA
330
1F
100
AcDbEntity
  8
RAHMENSCHRIFT
  6
AUSGEZOGEN
 62
     1
370
    18
100
AcDbText
 10
53.730012495314
 20
-113.812634670725
 30
0.0
 40
2.295118588377
  1
BaSys - Bartels Systembeschläge GmbH
 41
1.032465594944
  7
Arial
 72
     5
 11
114.022903120314
 21
-113.812634670725
 31
0.0
100
AcDbText
  0
LINE
  5
1EB
330
1F
100
AcDbEntity
  8
KONTUREN
  6
AUSGEZOGEN
 62
     7
370
    18
100
AcDbLine
 10
196.401506505606
 20
-37.688239170047
 30
0.0
 11
161.401506505606
 21
-37.688239170047
 31
0.0
  0
LINE
  5
1EC
330
1F
100
AcDbEntity
  8
KONTUREN
  6
AUSGEZOGEN
 62
     7
370
    18
100
AcDbLine
 10
162.651506505606
 20
-40.688239170047
 30
0.0
 11
196.401506505606
 21
-40.688239170047
 31
0.0
  0
LINE
  5
1ED
330
1F
100
AcDbEntity
  8
KONTUREN
  6
AUSGEZOGEN
 62
     7
370
    18
100
AcDbLine
 10
161.401506505606
 20
-37.688239170047
 30
0.0
 11
161.401506505606
 21
-39.438239170047
 31
0.0
  0
LINE
  5
1EE
330
1F
100
AcDbEntity
  8
KONTUREN
  6
AUSGEZOGEN
 62
     7
370
    18
100
AcDbLine
 10
172.401506505606
 20
-37.688239170047
 30
0.0
 11
172.401506505606
 21
-40.688239170047
 31
0.0
  0
LINE
  5
1EF
330
1F
100
AcDbEntity
  8
MITTEL
  6
DASHDOT
 62
     1
370
    18
100
AcDbLine
 10
189.901506505606
 20
-35.774670424062
 30
0.0
 11
189.901506505606
 21
-42.308128253244
 31
0.0
  0
LINE
  5
1F0
330
1F
100
AcDbEntity
  8
KONTUREN
  6
AUSGEZOGEN
 62
     7
370
    18
100
AcDbLine
 10
196.401506505606
 20
-40.688239170047
 30
0.0
 11
196.401506505606
 21
-37.688239170047
 31
0.0
  0
LINE
  5
1F1
330
1F
100
AcDbEntity
  8
KONTUREN
  6
AUSGEZOGEN
 62
     7
370
    18
100
AcDbLine
 10
161.401506505606
 20
-39.438239170047
 30
0.0
 11
162.651506505606
 21
-40.688239170047
 31
0.0
  0
DIMENSION
  5
1FF
330
1F
100
AcDbEntity
  8
BEMASS
  6
AUSGEZOGEN
 62
     1
370
    18
100
AcDbDimension
  2
*D11
 10
162.651506505606
 20
-48.347010748526
 30
0.0
 11
151.944491142856
 21
-46.034240312628
 31
0.0
 70
   160
 71
     5
 42
-1.0
 53
0.0
  3
ISO-25
100
AcDbAlignedDimension
 13
161.401506505606
 23
-39.438239170047
 33
0.0
 14
162.651506505606
 24
-40.688239170047
 34
0.0
 50
0.0
100
AcDbRotatedDimension
1001
ACAD
1000
DSTYLE
1002
{
1070
     3
1000
<>
1070
   340
1005
61
1070
    44
1040
2.267857108797
1070
   280
1070
     3
1070
    77
1070
     1
1070
    78
1070
     8
1070
   179
1070
     2
1070
   271
1070
     2
1070
   173
1070
     1
1070
    41
1040
3.174999952316
1070
   147
1040
0.453571421759
1070
   140
1040
3.174999952316
1070
   178
1070
     1
1070
   177
1070
     1
1070
   176
1070
     1
1002
}
  0
HATCH
  5
200
330
1F
100
AcDbEntity
  8
BEMASS
  6
AUSGEZOGEN
 62
     1
370
    18
100
AcDbHatch
 10
0.0
 20
0.0
 30
0.0
210
0.0
220
0.0
230
1.0
  2
SOLID
 70
     1
 71
     0
 91
        1
 92
        2
 72
     0
 73
     1
 93
        4
 10
191.4494568275871
 20
2.62997395871441
 10
190.8154516193299
 20
2.320383894318255
 10
189.9015065056063
 20
5.799999999999997
 10
192.0834620358442
 20
2.939564023110565
 97
        0
 75
     0
 76
     1
 98
        0
  0
LWPOLYLINE
  5
201
330
1F
100
AcDbEntity
  8
BEMASS
  6
AUSGEZOGEN
 62
     1
370
    18
100
AcDbPolyline
 90
        3
 70
     0
 43
0.0
 10
191.449456827587
 20
2.629973958714
 10
201.45
 20
-17.85
 10
220.280554228586
 20
-17.85
  0
WIPEOUT
  5
202
330
1F
100
AcDbEntity
  8
BEMASS
  6
AUSGEZOGEN
 62
     1
370
    18
 92
      152
310
98000000040000000C0000000E000000120000000C00000016000000000000C20C00000014000000010000006C0000000700000004000000D4C87ADECF6B694080D5CA41309430C0000000000000000008FC8DFB54496B4080D5CA41309430C0000000000000000008FC8DFB54496B406611FCE96BDE25C000000000000000
310
00D4C87ADECF6B69406611FCE96BDE25C00000000000000000
100
AcDbWipeout
 90
        0
 10
203.369124641241
 20
-16.578861343403
 30
0.0
 11
14.92249921560287
 21
0.0
 31
0.0
 12
0.0
 22
14.92249921560287
 32
0.0
 13
1.0
 23
1.0
340
0
 70
     7
280
     1
281
    50
282
    50
283
     0
360
0
 71
     2
 91
        5
 14
-0.5
 24
0.5
 14
0.5
 24
0.5
 14
0.5
 24
0.121749400462
 14
-0.5
 24
0.121749400462
 14
-0.5
 24
0.5
  0
TEXT
  5
203
330
1F
100
AcDbEntity
  8
BEMASS
  6
AUSGEZOGEN
 62
     1
370
    18
100
AcDbText
 10
203.369124641241
 20
-15.520528041859
 30
0.0
 40
3.527777671814
  1
Spax 5
 41
0.973532774386
  7
Arial
 72
     5
 11
218.291623856843
 21
-15.520528041859
 31
0.0
100
AcDbText
  0
DIMENSION
  5
20D
330
1F
100
AcDbEntity
  8
BEMASS
  6
AUSGEZOGEN
 62
     1
370
    18
100
AcDbDimension
  2
*D12
 10
172.401506505606
 20
238.8
 30
0.0
 11
166.901506505606
 21
240.987499976158
 31
0.0
 70
    32
 71
     5
 42
-1.0
  3
ISO-25
100
AcDbAlignedDimension
 13
161.401506505606
 23
188.8
 33
0.0
 14
172.401506505606
 24
190.8
 34
0.0
100
AcDbRotatedDimension
1001
ACAD
1000
DSTYLE
1002
{
1070
     3
1000
<>
1070
   340
1005
61
1070
    44
1040
2.267857108797
1070
   280
1070
     0
1070
    77
1070
     1
1070
    78
1070
     8
1070
   179
1070
     2
1070
   271
1070
     2
1070
   173
1070
     1
1070
    41
1040
3.174999952316
1070
   147
1040
0.453571421759
1070
   140
1040
3.174999952316
1070
   178
1070
     1
1070
   177
1070
     1
1070
   176
1070
     1
1002
}
  0
DIMENSION
  5
217
330
1F
100
AcDbEntity
  8
BEMASS
  6
AUSGEZOGEN
 62
     1
370
    18
100
AcDbDimension
  2
*D13
 10
196.401506505606
 20
238.8
 30
0.0
 11
184.401506505606
 21
240.987499976158
 31
0.0
 70
    32
 71
     5
 42
-1.0
  3
ISO-25
100
AcDbAlignedDimension
 13
172.401506505606
 23
216.8
 33
0.0
 14
196.401506505606
 24
216.8
 34
0.0
100
AcDbRotatedDimension
1001
ACAD
1000
DSTYLE
1002
{
1070
     3
1000
<>
1070
   340
1005
61
1070
    44
1040
2.267857108797
1070
   280
1070
     0
1070
    77
1070
     1
1070
    78
1070
     8
1070
   179
1070
     2
1070
   271
1070
     2
1070
   173
1070
     1
1070
    41
1040
3.174999952316
1070
   147
1040
0.453571421759
1070
   140
1040
3.174999952316
1070
   178
1070
     1
1070
   177
1070
     1
1070
   176
1070
     1
1002
}
  0
INSERT
  5
21E
330
1F
100
AcDbEntity
  8
0
100
AcDbBlockReference
  2
DimBlk_nNn013
 10
0.0
 20
0.0
 30
0.0
  0
ENDSEC
  0
SECTION
  2
OBJECTS
  0
DICTIONARY
  5
C
330
0
100
AcDbDictionary
281
     1
  3
ACAD_GROUP
350
D
  3
ACAD_LAYOUT
350
1A
  3
ACAD_MATERIAL
350
43
  3
ACAD_MLEADERSTYLE
350
5B
  3
ACAD_MLINESTYLE
350
17
  3
ACAD_PLOTSETTINGS
350
19
  3
ACAD_PLOTSTYLENAME
350
E
  3
ACAD_SCALELIST
350
47
  3
ACAD_TABLESTYLE
350
59
  3
ACAD_VISUALSTYLE
350
2A
  3
ACAD_WIPEOUT_VARS
350
269
  3
AcDbVariableDictionary
350
21F
  3
DWGPROPS
350
22B
  0
DICTIONARY
  5
22C
330
8
100
AcDbDictionary
280
     1
281
     1
  3
ACAD_XREC_ROUNDTRIP
360
22D
  0
DICTIONARY
  5
D
102
{ACAD_REACTORS
330
C
102
}
330
C
100
AcDbDictionary
281
     1
  0
DICTIONARY
  5
1A
102
{ACAD_REACTORS
330
C
102
}
330
C
100
AcDbDictionary
281
     1
  3
Layout1
350
1E
  3
Layout2
350
26
  3
Model
350
22
  0
DICTIONARY
  5
43
102
{ACAD_REACTORS
330
C
102
}
330
C
100
AcDbDictionary
281
     1
  3
ByBlock
350
45
  3
ByLayer
350
44
  3
Global
350
46
  0
DICTIONARY
  5
5B
102
{ACAD_REACTORS
330
C
102
}
330
C
100
AcDbDictionary
281
     1
  3
Standard
350
5C
  0
DICTIONARY
  5
17
102
{ACAD_REACTORS
330
C
102
}
330
C
100
AcDbDictionary
281
     1
  3
Standard
350
18
  0
DICTIONARY
  5
19
102
{ACAD_REACTORS
330
C
102
}
330
C
100
AcDbDictionary
281
     1
  0
ACDBDICTIONARYWDFLT
  5
E
102
{ACAD_REACTORS
330
C
102
}
330
C
100
AcDbDictionary
281
     1
  3
Normal
350
F
100
AcDbDictionaryWithDefault
340
F
  0
DICTIONARY
  5
47
102
{ACAD_REACTORS
330
C
102
}
330
C
100
AcDbDictionary
281
     1
  3
A0
350
48
  3
A1
350
49
  3
A2
350
4A
  3
A3
350
4B
  3
A4
350
4C
  3
A5
350
4D
  3
A6
350
4E
  3
A7
350
4F
  3
A8
350
50
  3
A9
350
51
  3
B0
350
52
  3
B1
350
53
  3
B2
350
54
  3
B3
350
55
  3
B4
350
56
  3
B5
350
57
  3
B6
350
58
  0
DICTIONARY
  5
59
102
{ACAD_REACTORS
330
C
102
}
330
C
100
AcDbDictionary
281
     1
  3
Standard
350
5A
  0
DICTIONARY
  5
2A
102
{ACAD_REACTORS
330
C
102
}
330
C
100
AcDbDictionary
281
     1
  3
2dWireframe
350
2F
  3
Basic
350
32
  3
Brighten
350
36
  3
ColorChange
350
3A
  3
Conceptual
350
34
  3
Dim
350
35
  3
EdgeColorOff
350
3D
  3
Facepattern
350
39
  3
Flat
350
2B
  3
FlatWithEdges
350
2C
  3
Gouraud
350
2D
  3
GouraudWithEdges
350
2E
  3
Hidden
350
31
  3
JitterOff
350
3B
  3
Linepattern
350
38
  3
OverhangOff
350
3C
  3
Realistic
350
33
  3
Shaded
350
42
  3
Shaded with edges
350
41
  3
Shades of Gray
350
3E
  3
Sketchy
350
3F
  3
Thicken
350
37
  3
Wireframe
350
30
  3
X-Ray
350
40
  0
WIPEOUTVARIABLES
  5
269
102
{ACAD_REACTORS
330
C
102
}
330
C
100
AcDbWipeoutVariables
 70
     0
  0
DICTIONARY
  5
21F
102
{ACAD_REACTORS
330
C
102
}
330
C
100
AcDbDictionary
281
     1
  3
CANNOSCALE
350
22E
  3
CENTEREXE
350
227
  3
CENTERLTYPEFILE
350
228
  3
CMLEADERSTYLE
350
221
  3
CTABLESTYLE
350
220
  3
DIMASSOC
350
229
  3
HIDETEXT
350
22A
  3
MSLTSCALE
350
22F
  3
PSOLHEIGHT
350
223
  3
PSOLWIDTH
350
222
  3
WIPEOUTFRAME
350
226
  0
XRECORD
  5
22B
102
{ACAD_REACTORS
330
C
102
}
330
C
100
AcDbXrecord
280
     1
  1
DWGPROPS COOKIE
  2

  3

  4

  6

  7

  8
A.Meinzer
  9

300
=
301
=
302
=
303
=
304
=
305
=
306
=
307
=
308
=
309
=
 40
0.0
 41
2459584.531609213
 42
2459584.531667917
  1

 90
        0
  0
XRECORD
  5
22D
102
{ACAD_REACTORS
330
22C
102
}
330
22C
100
AcDbXrecord
280
     1
102
VTR_0.000_0.000_1.000_1.000_VISUALSTYLE
340
2F
102
VTR_0.000_0.000_1.000_1.000_GRIDDISPLAY
 70
     3
102
VTR_0.000_0.000_1.000_1.000_GRIDMAJOR
 70
     5
102
VTR_0.000_0.000_1.000_1.000_DEFAULTLIGHTING
280
     1
102
VTR_0.000_0.000_1.000_1.000_DEFAULTLIGHTINGTYPE
 70
     1
102
VTR_0.000_0.000_1.000_1.000_BRIGHTNESS
141
0.0
102
VTR_0.000_0.000_1.000_1.000_CONTRAST
142
0.0
  0
LAYOUT
  5
1E
102
{ACAD_REACTORS
330
1A
102
}
330
1A
100
AcDbPlotSettings
  1

  2
none_device
  4

  6

 40
0.0
 41
0.0
 42
0.0
 43
0.0
 44
0.0
 45
0.0
 46
0.0
 47
0.0
 48
0.0
 49
0.0
140
0.0
141
0.0
142
1.0
143
1.0
 70
   688
 72
     1
 73
     0
 74
     5
  7

 75
    16
147
1.0
148
0.0
149
0.0
100
AcDbLayout
  1
Layout1
 70
     1
 71
     1
 10
0.0
 20
0.0
 11
420.0
 21
297.0
 12
0.0
 22
0.0
 32
0.0
 14
1.000000000000E+20
 24
1.000000000000E+20
 34
1.000000000000E+20
 15
-1.000000000000E+20
 25
-1.000000000000E+20
 35
-1.000000000000E+20
146
0.0
 13
0.0
 23
0.0
 33
0.0
 16
1.0
 26
0.0
 36
0.0
 17
0.0
 27
1.0
 37
0.0
 76
     0
330
1B
  0
LAYOUT
  5
26
102
{ACAD_REACTORS
330
1A
102
}
330
1A
100
AcDbPlotSettings
  1

  2
none_device
  4

  6

 40
0.0
 41
0.0
 42
0.0
 43
0.0
 44
0.0
 45
0.0
 46
0.0
 47
0.0
 48
0.0
 49
0.0
140
0.0
141
0.0
142
1.0
143
1.0
 70
   688
 72
     1
 73
     0
 74
     5
  7

 75
    16
147
1.0
148
0.0
149
0.0
100
AcDbLayout
  1
Layout2
 70
     1
 71
     2
 10
0.0
 20
0.0
 11
0.0
 21
0.0
 12
0.0
 22
0.0
 32
0.0
 14
0.0
 24
0.0
 34
0.0
 15
0.0
 25
0.0
 35
0.0
146
0.0
 13
0.0
 23
0.0
 33
0.0
 16
1.0
 26
0.0
 36
0.0
 17
0.0
 27
1.0
 37
0.0
 76
     0
330
23
  0
LAYOUT
  5
22
102
{ACAD_REACTORS
330
1A
102
}
330
1A
100
AcDbPlotSettings
  1

  2
none_device
  4
Letter_(8.50_x_11.00_Inches)
  6

 40
6.35
 41
6.35
 42
6.35000508
 43
6.35000508
 44
215.9
 45
279.4
 46
0.0
 47
0.0
 48
0.0
 49
0.0
140
0.0
141
0.0
142
1.0
143
1.0
 70
  1712
 72
     1
 73
     0
 74
     0
  7

 75
     0
147
1.0
148
0.0
149
0.0
100
AcDbLayout
  1
Model
 70
     1
 71
     0
 10
0.0
 20
0.0
 11
420.0
 21
297.0
 12
0.0
 22
0.0
 32
0.0
 14
-387.784075539879
 24
-144.153011184964
 34
0.0
 15
770.691656501182
 25
317.846988815036
 35
0.0
146
0.0
 13
0.0
 23
0.0
 33
0.0
 16
1.0
 26
0.0
 36
0.0
 17
0.0
 27
1.0
 37
0.0
 76
     0
330
1F
331
29
  0
MATERIAL
  5
45
102
{ACAD_REACTORS
330
43
102
}
102
{ACAD_XDICTIONARY
360
262
102
}
330
43
100
AcDbMaterial
  1
ByBlock
  0
MATERIAL
  5
44
102
{ACAD_REACTORS
330
43
102
}
102
{ACAD_XDICTIONARY
360
260
102
}
330
43
100
AcDbMaterial
  1
ByLayer
  0
MATERIAL
  5
46
102
{ACAD_REACTORS
330
43
102
}
102
{ACAD_XDICTIONARY
360
264
102
}
330
43
100
AcDbMaterial
  1
Global
  0
MLEADERSTYLE
  5
5C
102
{ACAD_REACTORS
330
5B
102
}
102
{ACAD_XDICTIONARY
360
267
102
}
330
5B
100
AcDbMLeaderStyle
170
     2
171
     1
172
     0
 90
        2
 40
0.0
 41
0.0
173
     1
 91
-1056964608
340
14
 92
       -2
290
     1
 42
2.0
291
     1
 43
8.0
  3
Standard
341
0
 44
4.0
300

342
11
174
     1
178
     6
175
     1
176
     0
 93
-1056964608
 45
4.0
292
     0
297
     0
 46
4.0
343
0
 94
-1056964608
 47
1.0
 49
1.0
140
1.0
293
     1
141
0.0
294
     1
177
     0
142
1.0
295
     0
296
     0
143
3.75
1001
ACAD_MLEADERVER
1070
     2
  0
MLINESTYLE
  5
18
102
{ACAD_REACTORS
330
17
102
}
330
17
100
AcDbMlineStyle
  2
Standard
 70
     0
  3

 62
   256
 51
90.0
 52
90.0
 71
     2
 49
0.5
 62
   256
  6
BYLAYER
 49
-0.5
 62
   256
  6
BYLAYER
  0
ACDBPLACEHOLDER
  5
F
102
{ACAD_REACTORS
330
E
102
}
330
E
  0
SCALE
  5
48
102
{ACAD_REACTORS
330
47
102
}
330
47
100
AcDbScale
 70
     0
300
1:1
140
1.0
141
1.0
290
     1
  0
SCALE
  5
49
102
{ACAD_REACTORS
330
47
102
}
330
47
100
AcDbScale
 70
     0
300
1:2
140
1.0
141
2.0
290
     0
  0
SCALE
  5
4A
102
{ACAD_REACTORS
330
47
102
}
330
47
100
AcDbScale
 70
     0
300
1:4
140
1.0
141
4.0
290
     0
  0
SCALE
  5
4B
102
{ACAD_REACTORS
330
47
102
}
330
47
100
AcDbScale
 70
     0
300
1:5
140
1.0
141
5.0
290
     0
  0
SCALE
  5
4C
102
{ACAD_REACTORS
330
47
102
}
330
47
100
AcDbScale
 70
     0
300
1:8
140
1.0
141
8.0
290
     0
  0
SCALE
  5
4D
102
{ACAD_REACTORS
330
47
102
}
330
47
100
AcDbScale
 70
     0
300
1:10
140
1.0
141
10.0
290
     0
  0
SCALE
  5
4E
102
{ACAD_REACTORS
330
47
102
}
330
47
100
AcDbScale
 70
     0
300
1:16
140
1.0
141
16.0
290
     0
  0
SCALE
  5
4F
102
{ACAD_REACTORS
330
47
102
}
330
47
100
AcDbScale
 70
     0
300
1:20
140
1.0
141
20.0
290
     0
  0
SCALE
  5
50
102
{ACAD_REACTORS
330
47
102
}
330
47
100
AcDbScale
 70
     0
300
1:30
140
1.0
141
30.0
290
     0
  0
SCALE
  5
51
102
{ACAD_REACTORS
330
47
102
}
330
47
100
AcDbScale
 70
     0
300
1:40
140
1.0
141
40.0
290
     0
  0
SCALE
  5
52
102
{ACAD_REACTORS
330
47
102
}
330
47
100
AcDbScale
 70
     0
300
1:50
140
1.0
141
50.0
290
     0
  0
SCALE
  5
53
102
{ACAD_REACTORS
330
47
102
}
330
47
100
AcDbScale
 70
     0
300
1:100
140
1.0
141
100.0
290
     0
  0
SCALE
  5
54
102
{ACAD_REACTORS
330
47
102
}
330
47
100
AcDbScale
 70
     0
300
2:1
140
2.0
141
1.0
290
     0
  0
SCALE
  5
55
102
{ACAD_REACTORS
330
47
102
}
330
47
100
AcDbScale
 70
     0
300
4:1
140
4.0
141
1.0
290
     0
  0
SCALE
  5
56
102
{ACAD_REACTORS
330
47
102
}
330
47
100
AcDbScale
 70
     0
300
8:1
140
8.0
141
1.0
290
     0
  0
SCALE
  5
57
102
{ACAD_REACTORS
330
47
102
}
330
47
100
AcDbScale
 70
     0
300
10:1
140
10.0
141
1.0
290
     0
  0
SCALE
  5
58
102
{ACAD_REACTORS
330
47
102
}
330
47
100
AcDbScale
 70
     0
300
100:1
140
100.0
141
1.0
290
     0
  0
TABLESTYLE
  5
5A
102
{ACAD_REACTORS
330
59
102
}
330
59
100
AcDbTableStyle
  3
Standard
 70
     0
 71
     0
 40
1.5
 41
1.5
280
     0
281
     0
  7
Standard
140
4.5
170
     2
 62
     0
 63
   257
283
     0
274
    -2
284
     1
 64
     0
275
    -2
285
     1
 65
     0
276
    -2
286
     1
 66
     0
277
    -2
287
     1
 67
     0
278
    -2
288
     1
 68
     0
279
    -2
289
     1
 69
     0
  7
Standard
140
6.0
170
     5
 62
     0
 63
   257
283
     0
274
    -2
284
     1
 64
     0
275
    -2
285
     1
 65
     0
276
    -2
286
     1
 66
     0
277
    -2
287
     1
 67
     0
278
    -2
288
     1
 68
     0
279
    -2
289
     1
 69
     0
  7
Standard
140
4.5
170
     5
 62
     0
 63
   257
283
     0
274
    -2
284
     1
 64
     0
275
    -2
285
     1
 65
     0
276
    -2
286
     1
 66
     0
277
    -2
287
     1
 67
     0
278
    -2
288
     1
 68
     0
279
    -2
289
     1
 69
     0
  0
VISUALSTYLE
  5
2F
102
{ACAD_REACTORS
330
2A
102
}
102
{ACAD_XDICTIONARY
360
238
102
}
330
2A
100
AcDbVisualStyle
  2
2dWireframe
 70
     4
 71
     0
 72
     2
 73
     0
 90
        0
 40
0.6
 41
30.0
 62
     5
 63
     7
 74
     1
 91
        4
 64
     7
 65
   257
 75
     1
175
     1
 42
1.0
 92
        0
 66
   257
 43
1.0
 76
     1
 77
     6
 78
     2
 67
     7
 79
     5
170
     0
171
     0
290
     0
174
     0
 93
        1
 44
0.0
173
     0
291
     0
 45
0.0
1001
ACAD
1000
AcDbSavedByObjectVersion
1070
     0
  0
VISUALSTYLE
  5
32
102
{ACAD_REACTORS
330
2A
102
}
102
{ACAD_XDICTIONARY
360
23E
102
}
330
2A
100
AcDbVisualStyle
  2
Basic
 70
     7
 71
     1
 72
     0
 73
     1
 90
        0
 40
0.6
 41
30.0
 62
     5
 63
     7
 74
     0
 91
        4
 64
     7
 65
   257
 75
     1
175
     1
 42
1.0
 92
        8
 66
     7
 43
1.0
 76
     1
 77
     6
 78
     2
 67
     7
 79
     5
170
     0
171
     0
290
     0
174
     0
 93
        1
 44
0.0
173
     0
291
     1
 45
0.0
1001
ACAD
1000
AcDbSavedByObjectVersion
1070
     0
  0
VISUALSTYLE
  5
36
102
{ACAD_REACTORS
330
2A
102
}
102
{ACAD_XDICTIONARY
360
246
102
}
330
2A
100
AcDbVisualStyle
  2
Brighten
 70
    12
 71
     2
 72
     2
 73
     0
 90
        0
 40
0.6
 41
30.0
 62
     5
 63
     7
 74
     1
 91
        4
 64
     7
 65
   257
 75
     1
175
     1
 42
1.0
 92
        8
 66
     7
 43
1.0
 76
     1
 77
     6
 78
     2
 67
     7
 79
     5
170
     0
171
     0
290
     0
174
     0
 93
        1
 44
50.0
173
     0
291
     1
 45
0.0
1001
ACAD
1000
AcDbSavedByObjectVersion
1070
     0
  0
VISUALSTYLE
  5
3A
102
{ACAD_REACTORS
330
2A
102
}
102
{ACAD_XDICTIONARY
360
24E
102
}
330
2A
100
AcDbVisualStyle
  2
ColorChange
 70
    16
 71
     2
 72
     2
 73
     3
 90
        0
 40
0.6
 41
30.0
 62
     5
 63
     8
 74
     1
 91
        4
 64
     7
 65
   257
 75
     1
175
     1
 42
1.0
 92
        8
 66
     8
 43
1.0
 76
     1
 77
     6
 78
     2
 67
     7
 79
     5
170
     0
171
     0
290
     0
174
     0
 93
        1
 44
0.0
173
     0
291
     1
 45
0.0
1001
ACAD
1000
AcDbSavedByObjectVersion
1070
     0
  0
VISUALSTYLE
  5
34
102
{ACAD_REACTORS
330
2A
102
}
102
{ACAD_XDICTIONARY
360
242
102
}
330
2A
100
AcDbVisualStyle
  2
Conceptual
 70
     9
 71
     3
 72
     2
 73
     0
 90
        0
 40
0.6
 41
30.0
 62
     5
 63
     7
 74
     2
 91
        2
 64
     7
 65
   257
 75
     1
175
     1
 42
179.0
 92
        8
 66
     7
 43
1.0
 76
     1
 77
     6
 78
     2
 67
     7
 79
     3
170
     0
171
     0
290
     0
174
     0
 93
        1
 44
0.0
173
     0
291
     0
 45
0.0
1001
ACAD
1000
AcDbSavedByObjectVersion
1070
     0
  0
VISUALSTYLE
  5
35
102
{ACAD_REACTORS
330
2A
102
}
102
{ACAD_XDICTIONARY
360
244
102
}
330
2A
100
AcDbVisualStyle
  2
Dim
 70
    11
 71
     2
 72
     2
 73
     0
 90
        0
 40
0.6
 41
30.0
 62
     5
 63
     7
 74
     1
 91
        4
 64
     7
 65
   257
 75
     1
175
     1
 42
1.0
 92
        8
 66
     7
 43
1.0
 76
     1
 77
     6
 78
     2
 67
     7
 79
     5
170
     0
171
     0
290
     0
174
     0
 93
        1
 44
-50.0
173
     0
291
     1
 45
0.0
1001
ACAD
1000
AcDbSavedByObjectVersion
1070
     0
  0
VISUALSTYLE
  5
3D
102
{ACAD_REACTORS
330
2A
102
}
102
{ACAD_XDICTIONARY
360
254
102
}
330
2A
100
AcDbVisualStyle
  2
EdgeColorOff
 70
    22
 71
     2
 72
     2
 73
     0
 90
        0
 40
0.6
 41
30.0
 62
     5
 63
     7
 74
     1
 91
        4
 64
     7
 65
   257
 75
     1
175
     1
 42
1.0
 92
        8
 66
     7
 43
1.0
 76
     1
 77
     6
 78
     2
 67
     7
 79
     5
170
     0
171
     0
290
     0
174
     0
 93
        1
 44
0.0
173
     0
291
     1
 45
0.0
1001
ACAD
1000
AcDbSavedByObjectVersion
1070
     0
  0
VISUALSTYLE
  5
39
102
{ACAD_REACTORS
330
2A
102
}
102
{ACAD_XDICTIONARY
360
24C
102
}
330
2A
100
AcDbVisualStyle
  2
Facepattern
 70
    15
 71
     2
 72
     2
 73
     0
 90
        0
 40
0.6
 41
30.0
 62
     5
 63
     7
 74
     1
 91
        4
 64
     7
 65
   257
 75
     1
175
     1
 42
1.0
 92
        8
 66
     7
 43
1.0
 76
     1
 77
     6
 78
     2
 67
     7
 79
     5
170
     0
171
     0
290
     0
174
     0
 93
        1
 44
0.0
173
     0
291
     1
 45
0.0
1001
ACAD
1000
AcDbSavedByObjectVersion
1070
     0
  0
VISUALSTYLE
  5
2B
102
{ACAD_REACTORS
330
2A
102
}
102
{ACAD_XDICTIONARY
360
230
102
}
330
2A
100
AcDbVisualStyle
  2
Flat
 70
     0
 71
     2
 72
     1
 73
     1
 90
        2
 40
0.6
 41
30.0
 62
     5
 63
     7
 74
     0
 91
        0
 64
     7
 65
   257
 75
     1
175
     1
 42
1.0
 92
        8
 66
     7
 43
1.0
 76
     1
 77
     6
 78
     2
 67
     7
 79
     5
170
     0
171
     0
290
     0
174
     0
 93
       13
 44
0.0
173
     0
291
     1
 45
0.0
1001
ACAD
1000
AcDbSavedByObjectVersion
1070
     0
  0
VISUALSTYLE
  5
2C
102
{ACAD_REACTORS
330
2A
102
}
102
{ACAD_XDICTIONARY
360
232
102
}
330
2A
100
AcDbVisualStyle
  2
FlatWithEdges
 70
     1
 71
     2
 72
     1
 73
     1
 90
        2
 40
0.6
 41
30.0
 62
     5
 63
     7
 74
     1
 91
        0
 64
     7
 65
   257
 75
     1
175
     1
 42
1.0
 92
        0
 66
   257
 43
1.0
 76
     1
 77
     6
 78
     2
 67
     7
 79
     5
170
     0
171
     0
290
     0
174
     0
 93
       13
 44
0.0
173
     0
291
     1
 45
0.0
1001
ACAD
1000
AcDbSavedByObjectVersion
1070
     0
  0
VISUALSTYLE
  5
2D
102
{ACAD_REACTORS
330
2A
102
}
102
{ACAD_XDICTIONARY
360
234
102
}
330
2A
100
AcDbVisualStyle
  2
Gouraud
 70
     2
 71
     2
 72
     2
 73
     1
 90
        2
 40
0.6
 41
30.0
 62
     5
 63
     7
 74
     0
 91
        0
 64
     7
 65
   257
 75
     1
175
     1
 42
1.0
 92
        0
 66
     7
 43
1.0
 76
     1
 77
     6
 78
     2
 67
     7
 79
     5
170
     0
171
     0
290
     0
174
     0
 93
       13
 44
0.0
173
     0
291
     1
 45
0.0
1001
ACAD
1000
AcDbSavedByObjectVersion
1070
     0
  0
VISUALSTYLE
  5
2E
102
{ACAD_REACTORS
330
2A
102
}
102
{ACAD_XDICTIONARY
360
236
102
}
330
2A
100
AcDbVisualStyle
  2
GouraudWithEdges
 70
     3
 71
     2
 72
     2
 73
     1
 90
        2
 40
0.6
 41
30.0
 62
     5
 63
     7
 74
     1
 91
        0
 64
     7
 65
   257
 75
     1
175
     1
 42
1.0
 92
        0
 66
   257
 43
1.0
 76
     1
 77
     6
 78
     2
 67
     7
 79
     5
170
     0
171
     0
290
     0
174
     0
 93
       13
 44
0.0
173
     0
291
     1
 45
0.0
1001
ACAD
1000
AcDbSavedByObjectVersion
1070
     0
  0
VISUALSTYLE
  5
31
102
{ACAD_REACTORS
330
2A
102
}
102
{ACAD_XDICTIONARY
360
23C
102
}
330
2A
100
AcDbVisualStyle
  2
Hidden
 70
     6
 71
     1
 72
     2
 73
     2
 90
        0
 40
0.6
 41
30.0
 62
     5
 63
     7
 74
     2
 91
        2
 64
     7
 65
   257
 75
     2
175
     1
 42
40.0
 92
        0
 66
   257
 43
1.0
 76
     1
 77
     6
 78
     2
 67
     7
 79
     3
170
     0
171
     0
290
     0
174
     0
 93
        1
 44
0.0
173
     0
291
     0
 45
0.0
1001
ACAD
1000
AcDbSavedByObjectVersion
1070
     0
  0
VISUALSTYLE
  5
3B
102
{ACAD_REACTORS
330
2A
102
}
102
{ACAD_XDICTIONARY
360
250
102
}
330
2A
100
AcDbVisualStyle
  2
JitterOff
 70
    20
 71
     2
 72
     2
 73
     0
 90
        0
 40
0.6
 41
30.0
 62
     5
 63
     7
 74
     1
 91
        4
 64
     7
 65
   257
 75
     1
175
     1
 42
1.0
 92
       10
 66
     7
 43
1.0
 76
     1
 77
     6
 78
     2
 67
     7
 79
     5
170
     0
171
     0
290
     0
174
     0
 93
        1
 44
0.0
173
     0
291
     1
 45
0.0
1001
ACAD
1000
AcDbSavedByObjectVersion
1070
     0
  0
VISUALSTYLE
  5
38
102
{ACAD_REACTORS
330
2A
102
}
102
{ACAD_XDICTIONARY
360
24A
102
}
330
2A
100
AcDbVisualStyle
  2
Linepattern
 70
    14
 71
     2
 72
     2
 73
     0
 90
        0
 40
0.6
 41
30.0
 62
     5
 63
     7
 74
     1
 91
        4
 64
     7
 65
   257
 75
     7
175
     7
 42
1.0
 92
        8
 66
     7
 43
1.0
 76
     1
 77
     6
 78
     2
 67
     7
 79
     5
170
     0
171
     0
290
     0
174
     0
 93
        1
 44
0.0
173
     0
291
     1
 45
0.0
1001
ACAD
1000
AcDbSavedByObjectVersion
1070
     0
  0
VISUALSTYLE
  5
3C
102
{ACAD_REACTORS
330
2A
102
}
102
{ACAD_XDICTIONARY
360
252
102
}
330
2A
100
AcDbVisualStyle
  2
OverhangOff
 70
    21
 71
     2
 72
     2
 73
     0
 90
        0
 40
0.6
 41
30.0
 62
     5
 63
     7
 74
     1
 91
        4
 64
     7
 65
   257
 75
     1
175
     1
 42
1.0
 92
        9
 66
     7
 43
1.0
 76
     1
 77
     6
 78
     2
 67
     7
 79
     5
170
     0
171
     0
290
     0
174
     0
 93
        1
 44
0.0
173
     0
291
     1
 45
0.0
1001
ACAD
1000
AcDbSavedByObjectVersion
1070
     0
  0
VISUALSTYLE
  5
33
102
{ACAD_REACTORS
330
2A
102
}
102
{ACAD_XDICTIONARY
360
240
102
}
330
2A
100
AcDbVisualStyle
  2
Realistic
 70
     8
 71
     2
 72
     3
 73
     0
 90
        2
 40
0.6
 41
30.0
 62
     5
 63
     7
 74
     0
 91
        0
 64
     7
 65
   257
 75
     1
175
     1
 42
1.0
 92
        8
 66
   257
 43
1.0
 76
     1
 77
     6
 78
     2
 67
     7
 79
     3
170
     0
171
     0
290
     0
174
     0
 93
       13
 44
0.0
173
     0
291
     0
 45
0.0
1001
ACAD
1000
AcDbSavedByObjectVersion
1070
     0
  0
VISUALSTYLE
  5
42
102
{ACAD_REACTORS
330
2A
102
}
102
{ACAD_XDICTIONARY
360
25E
102
}
330
2A
100
AcDbVisualStyle
  2
Shaded
 70
    27
 71
     2
 72
     2
 73
     1
 90
        2
 40
0.6
 41
30.0
 62
     5
 63
     7
 74
     0
 91
        4
 64
     7
 65
   257
 75
     1
175
     1
 42
1.0
 92
        8
 66
   257
 43
1.0
 76
     1
 77
     6
 78
     2
 67
     8
 79
     3
170
     0
171
     0
290
     0
174
     0
 93
        5
 44
0.0
173
     0
291
     0
 45
0.0
1001
ACAD
1000
AcDbSavedByObjectVersion
1070
     0
  0
VISUALSTYLE
  5
41
102
{ACAD_REACTORS
330
2A
102
}
102
{ACAD_XDICTIONARY
360
25C
102
}
330
2A
100
AcDbVisualStyle
  2
Shaded with edges
 70
    26
 71
     2
 72
     2
 73
     1
 90
        2
 40
0.6
 41
30.0
 62
     5
 63
     7
 74
     1
 91
       10
 64
     7
 65
   257
 75
     2
175
     1
 42
1.0
 92
        8
 66
   257
 43
1.0
 76
     1
 77
     6
 78
     2
 67
     7
 79
     3
170
     0
171
     0
290
     0
174
     0
 93
        5
 44
0.0
173
     0
291
     0
 45
0.0
1001
ACAD
1000
AcDbSavedByObjectVersion
1070
     0
  0
VISUALSTYLE
  5
3E
102
{ACAD_REACTORS
330
2A
102
}
102
{ACAD_XDICTIONARY
360
256
102
}
330
2A
100
AcDbVisualStyle
  2
Shades of Gray
 70
    23
 71
     2
 72
     2
 73
     3
 90
        0
 40
0.6
 41
30.0
 62
     5
 63
     7
 74
     2
 91
        2
 64
     7
 65
     7
 75
     1
175
     1
 42
40.0
 92
        8
 66
     7
 43
1.0
 76
     1
 77
     6
 78
     2
 67
     7
 79
     3
170
     0
171
     0
290
     0
174
     0
 93
        1
 44
0.0
173
     0
291
     0
 45
0.0
1001
ACAD
1000
AcDbSavedByObjectVersion
1070
     0
  0
VISUALSTYLE
  5
3F
102
{ACAD_REACTORS
330
2A
102
}
102
{ACAD_XDICTIONARY
360
258
102
}
330
2A
100
AcDbVisualStyle
  2
Sketchy
 70
    24
 71
     1
 72
     2
 73
     2
 90
        0
 40
0.6
 41
30.0
 62
     5
 63
     7
 74
     2
 91
        2
 64
     7
 65
     7
 75
     1
175
     1
 42
40.0
 92
       11
 66
     7
 43
1.0
 76
     1
 77
     6
 78
     2
 67
     7
 79
     6
170
     0
171
     0
290
     0
174
     0
 93
        1
 44
0.0
173
     0
291
     0
 45
0.0
1001
ACAD
1000
AcDbSavedByObjectVersion
1070
     0
  0
VISUALSTYLE
  5
37
102
{ACAD_REACTORS
330
2A
102
}
102
{ACAD_XDICTIONARY
360
248
102
}
330
2A
100
AcDbVisualStyle
  2
Thicken
 70
    13
 71
     2
 72
     2
 73
     0
 90
        0
 40
0.6
 41
30.0
 62
     5
 63
     7
 74
     1
 91
        4
 64
     7
 65
   257
 75
     1
175
     1
 42
1.0
 92
       12
 66
     7
 43
1.0
 76
     1
 77
     6
 78
     2
 67
     7
 79
     5
170
     0
171
     0
290
     0
174
     0
 93
        1
 44
0.0
173
     0
291
     1
 45
0.0
1001
ACAD
1000
AcDbSavedByObjectVersion
1070
     0
  0
VISUALSTYLE
  5
30
102
{ACAD_REACTORS
330
2A
102
}
102
{ACAD_XDICTIONARY
360
23A
102
}
330
2A
100
AcDbVisualStyle
  2
Wireframe
 70
     5
 71
     0
 72
     2
 73
     0
 90
        0
 40
0.6
 41
30.0
 62
     5
 63
     7
 74
     1
 91
        4
 64
     7
 65
   257
 75
     1
175
     1
 42
1.0
 92
        0
 66
   257
 43
1.0
 76
     1
 77
     6
 78
     2
 67
     7
 79
     3
170
     0
171
     0
290
     0
174
     0
 93
        1
 44
0.0
173
     0
291
     0
 45
0.0
1001
ACAD
1000
AcDbSavedByObjectVersion
1070
     0
  0
VISUALSTYLE
  5
40
102
{ACAD_REACTORS
330
2A
102
}
102
{ACAD_XDICTIONARY
360
25A
102
}
330
2A
100
AcDbVisualStyle
  2
X-Ray
 70
    25
 71
     2
 72
     2
 73
     1
 90
        1
 40
0.5
 41
30.0
 62
     5
 63
     7
 74
     1
 91
        0
 64
     7
 65
   257
 75
     1
175
     1
 42
1.0
 92
        8
 66
     7
 43
1.0
 76
     1
 77
     6
 78
     2
 67
     7
 79
     3
170
     0
171
     0
290
     0
174
     0
 93
       13
 44
0.0
173
     0
291
     0
 45
0.0
1001
ACAD
1000
AcDbSavedByObjectVersion
1070
     0
  0
DICTIONARYVAR
  5
22E
102
{ACAD_REACTORS
330
21F
102
}
330
21F
100
DictionaryVariables
280
     0
  1
1:1
  0
DICTIONARYVAR
  5
227
102
{ACAD_REACTORS
330
21F
102
}
330
21F
100
DictionaryVariables
280
     0
  1
3.500000
  0
DICTIONARYVAR
  5
228
102
{ACAD_REACTORS
330
21F
102
}
330
21F
100
DictionaryVariables
280
     0
  1
acadiso.lin
  0
DICTIONARYVAR
  5
221
102
{ACAD_REACTORS
330
21F
102
}
330
21F
100
DictionaryVariables
280
     0
  1
Standard
  0
DICTIONARYVAR
  5
220
102
{ACAD_REACTORS
330
21F
102
}
330
21F
100
DictionaryVariables
280
     0
  1
Standard
  0
DICTIONARYVAR
  5
229
102
{ACAD_REACTORS
330
21F
102
}
330
21F
100
DictionaryVariables
280
     0
  1
2
  0
DICTIONARYVAR
  5
22A
102
{ACAD_REACTORS
330
21F
102
}
330
21F
100
DictionaryVariables
280
     0
  1
1
  0
DICTIONARYVAR
  5
22F
102
{ACAD_REACTORS
330
21F
102
}
330
21F
100
DictionaryVariables
280
     0
  1
1
  0
DICTIONARYVAR
  5
223
102
{ACAD_REACTORS
330
21F
102
}
330
21F
100
DictionaryVariables
280
     0
  1
80.000000
  0
DICTIONARYVAR
  5
222
102
{ACAD_REACTORS
330
21F
102
}
330
21F
100
DictionaryVariables
280
     0
  1
5.000000
  0
DICTIONARYVAR
  5
226
102
{ACAD_REACTORS
330
21F
102
}
330
21F
100
DictionaryVariables
280
     0
  1
0
  0
DICTIONARY
  5
262
330
45
100
AcDbDictionary
280
     1
281
     1
  3
ACAD_XREC_ROUNDTRIP
360
263
  0
DICTIONARY
  5
260
330
44
100
AcDbDictionary
280
     1
281
     1
  3
ACAD_XREC_ROUNDTRIP
360
261
  0
DICTIONARY
  5
264
330
46
100
AcDbDictionary
280
     1
281
     1
  3
ACAD_XREC_ROUNDTRIP
360
265
  0
DICTIONARY
  5
267
330
5C
100
AcDbDictionary
280
     1
281
     1
  3
ACAD_XREC_ROUNDTRIP
360
268
  0
DICTIONARY
  5
238
330
2F
100
AcDbDictionary
280
     1
281
     1
  3
ACAD_XREC_ROUNDTRIP
360
239
  0
DICTIONARY
  5
23E
330
32
100
AcDbDictionary
280
     1
281
     1
  3
ACAD_XREC_ROUNDTRIP
360
23F
  0
DICTIONARY
  5
246
330
36
100
AcDbDictionary
280
     1
281
     1
  3
ACAD_XREC_ROUNDTRIP
360
247
  0
DICTIONARY
  5
24E
330
3A
100
AcDbDictionary
280
     1
281
     1
  3
ACAD_XREC_ROUNDTRIP
360
24F
  0
DICTIONARY
  5
242
330
34
100
AcDbDictionary
280
     1
281
     1
  3
ACAD_XREC_ROUNDTRIP
360
243
  0
DICTIONARY
  5
244
330
35
100
AcDbDictionary
280
     1
281
     1
  3
ACAD_XREC_ROUNDTRIP
360
245
  0
DICTIONARY
  5
254
330
3D
100
AcDbDictionary
280
     1
281
     1
  3
ACAD_XREC_ROUNDTRIP
360
255
  0
DICTIONARY
  5
24C
330
39
100
AcDbDictionary
280
     1
281
     1
  3
ACAD_XREC_ROUNDTRIP
360
24D
  0
DICTIONARY
  5
230
330
2B
100
AcDbDictionary
280
     1
281
     1
  3
ACAD_XREC_ROUNDTRIP
360
231
  0
DICTIONARY
  5
232
330
2C
100
AcDbDictionary
280
     1
281
     1
  3
ACAD_XREC_ROUNDTRIP
360
233
  0
DICTIONARY
  5
234
330
2D
100
AcDbDictionary
280
     1
281
     1
  3
ACAD_XREC_ROUNDTRIP
360
235
  0
DICTIONARY
  5
236
330
2E
100
AcDbDictionary
280
     1
281
     1
  3
ACAD_XREC_ROUNDTRIP
360
237
  0
DICTIONARY
  5
23C
330
31
100
AcDbDictionary
280
     1
281
     1
  3
ACAD_XREC_ROUNDTRIP
360
23D
  0
DICTIONARY
  5
250
330
3B
100
AcDbDictionary
280
     1
281
     1
  3
ACAD_XREC_ROUNDTRIP
360
251
  0
DICTIONARY
  5
24A
330
38
100
AcDbDictionary
280
     1
281
     1
  3
ACAD_XREC_ROUNDTRIP
360
24B
  0
DICTIONARY
  5
252
330
3C
100
AcDbDictionary
280
     1
281
     1
  3
ACAD_XREC_ROUNDTRIP
360
253
  0
DICTIONARY
  5
240
330
33
100
AcDbDictionary
280
     1
281
     1
  3
ACAD_XREC_ROUNDTRIP
360
241
  0
DICTIONARY
  5
25E
330
42
100
AcDbDictionary
280
     1
281
     1
  3
ACAD_XREC_ROUNDTRIP
360
25F
  0
DICTIONARY
  5
25C
330
41
100
AcDbDictionary
280
     1
281
     1
  3
ACAD_XREC_ROUNDTRIP
360
25D
  0
DICTIONARY
  5
256
330
3E
100
AcDbDictionary
280
     1
281
     1
  3
ACAD_XREC_ROUNDTRIP
360
257
  0
DICTIONARY
  5
258
330
3F
100
AcDbDictionary
280
     1
281
     1
  3
ACAD_XREC_ROUNDTRIP
360
259
  0
DICTIONARY
  5
248
330
37
100
AcDbDictionary
280
     1
281
     1
  3
ACAD_XREC_ROUNDTRIP
360
249
  0
DICTIONARY
  5
23A
330
30
100
AcDbDictionary
280
     1
281
     1
  3
ACAD_XREC_ROUNDTRIP
360
23B
  0
DICTIONARY
  5
25A
330
40
100
AcDbDictionary
280
     1
281
     1
  3
ACAD_XREC_ROUNDTRIP
360
25B
  0
XRECORD
  5
263
102
{ACAD_REACTORS
330
262
102
}
330
262
100
AcDbXrecord
280
     1
102
MATERIAL
148
0.0
149
0.0
149
0.0
 93
        0
 94
      127
282
     0
 72
     1
 77
     1
171
     1
175
     1
179
     1
273
     0
  0
XRECORD
  5
261
102
{ACAD_REACTORS
330
260
102
}
330
260
100
AcDbXrecord
280
     1
102
MATERIAL
148
0.0
149
0.0
149
0.0
 93
        0
 94
      127
282
     0
 72
     1
 77
     1
171
     1
175
     1
179
     1
273
     0
  0
XRECORD
  5
265
102
{ACAD_REACTORS
330
264
102
}
330
264
100
AcDbXrecord
280
     1
102
MATERIAL
148
0.0
149
0.0
149
0.0
 93
        0
 94
      127
282
     0
 72
     1
 77
     1
171
     1
175
     1
179
     1
273
     0
  0
XRECORD
  5
268
102
{ACAD_REACTORS
330
267
102
}
330
267
100
AcDbXrecord
280
     1
102
ACAD_ROUNDTRIP_2010_MLEADER_STYLE
  0
XRECORD
  5
239
102
{ACAD_REACTORS
330
238
102
}
330
238
100
AcDbXrecord
280
     1
102
RTVSPropertyOp0
 70
     1
102
RTVSPropertyOp1
 70
     1
102
RTVSPropertyOp2
 70
     1
102
RTVSPropertyOp3
 70
     1
102
RTVSPropertyOp4
 70
     1
102
RTVSPropertyOp5
 70
     1
102
RTVSPropertyOp6
 70
     1
102
RTVSPropertyOp7
 70
     1
102
RTVSPropertyOp8
 70
     1
102
RTVSPropertyOp9
 70
     1
102
RTVSPropertyOp10
 70
     1
102
RTVSPropertyOp11
 70
     1
102
RTVSPropertyOp12
 70
     1
102
RTVSPropertyOp13
 70
     1
102
RTVSPropertyOp14
 70
     1
102
RTVSPropertyOp15
 70
     1
102
RTVSPropertyOp16
 70
     1
102
RTVSPropertyOp17
 70
     1
102
RTVSPropertyOp18
 70
     1
102
RTVSPropertyOp19
 70
     1
102
RTVSPropertyOp20
 70
     1
102
RTVSPropertyOp21
 70
     1
102
RTVSPropertyOp22
 70
     1
102
RTVSPropertyOp23
 70
     1
102
RTVSPropertyOp24
 70
     1
102
RTVSPropertyOp25
 70
     1
102
RTVSPropertyOp26
 70
     1
102
RTVSPropertyOp27
 70
     1
102
RTVSPropertyOp28
 70
     1
102
RTVSPropertyOp29
 70
     1
102
RTVSPropertyOp30
 70
     1
102
RTVSPropertyOp31
 70
     1
102
RTVSPropertyOp32
 70
     1
102
RTVSPropertyOp33
 70
     1
102
RTVSPropertyOp34
 70
     1
102
RTVSPropertyOp35
 70
     1
102
RTVSPropertyOp36
 70
     1
102
RTVSPropertyOp37
 70
     1
102
RTVSPropertyOp38
 70
     1
102
RTVSPropertyOp39
 70
     1
102
RTVSPropertyOp40
 70
     1
102
RTVSPropertyOp41
 70
     1
102
RTVSPropertyOp42
 70
     1
102
RTVSPropertyOp43
 70
     1
102
RTVSPropertyOp44
 70
     1
102
RTVSPropertyOp45
 70
     1
102
RTVSPropertyOp46
 70
     1
102
RTVSPropertyOp47
 70
     1
102
RTVSPropertyOp48
 70
     1
102
RTVSPropertyOp49
 70
     1
102
RTVSPropertyOp50
 70
     1
102
RTVSPropertyOp51
 70
     0
102
RTVSPropertyOp52
 70
     0
102
RTVSPropertyOp53
 70
     1
102
RTVSPropertyOp54
 70
     1
102
RTVSPropertyOp55
 70
     1
102
RTVSPropertyOp56
 70
     1
102
RTVSPropertyOp57
 70
     1
102
RTVSPost2010Prop28
280
     1
102
RTVSPost2010PropOp28
 70
     1
102
RTVSPost2010Prop29
280
     1
102
RTVSPost2010PropOp29
 70
     1
102
RTVSPost2010Prop30
280
     0
102
RTVSPost2010PropOp30
 70
     1
102
RTVSPost2010Prop31
280
     0
102
RTVSPost2010PropOp31
 70
     1
102
RTVSPost2010Prop32
280
     0
102
RTVSPost2010PropOp32
 70
     1
102
RTVSPost2010Prop33
280
     0
102
RTVSPost2010PropOp33
 70
     1
102
RTVSPost2010Prop34
280
     0
102
RTVSPost2010PropOp34
 70
     1
102
RTVSPost2010Prop35
280
     0
102
RTVSPost2010PropOp35
 70
     1
102
RTVSPost2010Prop36
280
     0
102
RTVSPost2010PropOp36
 70
     1
102
RTVSPost2010Prop37
 90
       50
102
RTVSPost2010PropOp37
 70
     1
102
RTVSPost2010Prop38
140
0.0
102
RTVSPost2010PropOp38
 70
     1
102
RTVSPost2010Prop39
140
1.0
102
RTVSPost2010PropOp39
 70
     1
102
RTVSPost2010Prop40
 90
        0
102
RTVSPost2010PropOp40
 70
     1
102
RTVSPost2010Prop41ColorIndex
 90
       18
102
RTVSPost2010Prop41ColorRGB
 90
        0
102
RTVSPost2010PropOp41
 70
     1
102
RTVSPost2010Prop42
 90
       50
102
RTVSPost2010PropOp42
 70
     1
102
RTVSPost2010Prop43
 90
        3
102
RTVSPost2010PropOp43
 70
     1
102
RTVSPost2010Prop44ColorIndex
 90
        5
102
RTVSPost2010Prop44ColorRGB
 90
      255
102
RTVSPost2010PropOp44
 70
     1
102
RTVSPost2010Prop45
280
     0
102
RTVSPost2010PropOp45
 70
     1
102
RTVSPost2010Prop46
 90
       50
102
RTVSPost2010PropOp46
 70
     1
102
RTVSPost2010Prop47
 90
       50
102
RTVSPost2010PropOp47
 70
     1
102
RTVSPost2010Prop48
 90
       50
102
RTVSPost2010PropOp48
 70
     1
102
RTVSPost2010Prop49
280
     0
102
RTVSPost2010PropOp49
 70
     1
102
RTVSPost2010Prop50
 90
       50
102
RTVSPost2010PropOp50
 70
     1
102
RTVSPost2010Prop51ColorIndex
 90
      256
102
RTVSPost2010Prop51ColorRGB
 90
-16777216
102
RTVSPost2010PropOp51
 70
     0
102
RTVSPost2010Prop52
140
1.0
102
RTVSPost2010PropOp52
 70
     0
102
RTVSPost2010Prop53
 90
        2
102
RTVSPost2010PropOp53
 70
     1
102
RTVSPost2010Prop54
  1
strokes_ogs.tif
102
RTVSPost2010PropOp54
 70
     1
102
RTVSPost2010Prop55
280
     0
102
RTVSPost2010PropOp55
 70
     1
102
RTVSPost2010Prop56
140
1.0
102
RTVSPost2010PropOp56
 70
     1
102
RTVSPost2010Prop57
140
1.0
102
RTVSPost2010PropOp57
 70
     1
  0
XRECORD
  5
23F
102
{ACAD_REACTORS
330
23E
102
}
330
23E
100
AcDbXrecord
280
     1
102
RTVSPropertyOp0
 70
     1
102
RTVSPropertyOp1
 70
     1
102
RTVSPropertyOp2
 70
     1
102
RTVSPropertyOp3
 70
     1
102
RTVSPropertyOp4
 70
     1
102
RTVSPropertyOp5
 70
     1
102
RTVSPropertyOp6
 70
     1
102
RTVSPropertyOp7
 70
     1
102
RTVSPropertyOp8
 70
     1
102
RTVSPropertyOp9
 70
     1
102
RTVSPropertyOp10
 70
     1
102
RTVSPropertyOp11
 70
     1
102
RTVSPropertyOp12
 70
     1
102
RTVSPropertyOp13
 70
     1
102
RTVSPropertyOp14
 70
     1
102
RTVSPropertyOp15
 70
     1
102
RTVSPropertyOp16
 70
     1
102
RTVSPropertyOp17
 70
     1
102
RTVSPropertyOp18
 70
     1
102
RTVSPropertyOp19
 70
     1
102
RTVSPropertyOp20
 70
     1
102
RTVSPropertyOp21
 70
     1
102
RTVSPropertyOp22
 70
     1
102
RTVSPropertyOp23
 70
     1
102
RTVSPropertyOp24
 70
     1
102
RTVSPropertyOp25
 70
     1
102
RTVSPropertyOp26
 70
     1
102
RTVSPropertyOp27
 70
     1
102
RTVSPropertyOp28
 70
     1
102
RTVSPropertyOp29
 70
     1
102
RTVSPropertyOp30
 70
     1
102
RTVSPropertyOp31
 70
     1
102
RTVSPropertyOp32
 70
     1
102
RTVSPropertyOp33
 70
     1
102
RTVSPropertyOp34
 70
     1
102
RTVSPropertyOp35
 70
     1
102
RTVSPropertyOp36
 70
     1
102
RTVSPropertyOp37
 70
     1
102
RTVSPropertyOp38
 70
     1
102
RTVSPropertyOp39
 70
     1
102
RTVSPropertyOp40
 70
     1
102
RTVSPropertyOp41
 70
     1
102
RTVSPropertyOp42
 70
     1
102
RTVSPropertyOp43
 70
     1
102
RTVSPropertyOp44
 70
     1
102
RTVSPropertyOp45
 70
     1
102
RTVSPropertyOp46
 70
     1
102
RTVSPropertyOp47
 70
     1
102
RTVSPropertyOp48
 70
     1
102
RTVSPropertyOp49
 70
     1
102
RTVSPropertyOp50
 70
     1
102
RTVSPropertyOp51
 70
     0
102
RTVSPropertyOp52
 70
     0
102
RTVSPropertyOp53
 70
     1
102
RTVSPropertyOp54
 70
     1
102
RTVSPropertyOp55
 70
     1
102
RTVSPropertyOp56
 70
     1
102
RTVSPropertyOp57
 70
     1
102
RTVSPost2010Prop28
280
     0
102
RTVSPost2010PropOp28
 70
     1
102
RTVSPost2010Prop29
280
     1
102
RTVSPost2010PropOp29
 70
     1
102
RTVSPost2010Prop30
280
     1
102
RTVSPost2010PropOp30
 70
     1
102
RTVSPost2010Prop31
280
     0
102
RTVSPost2010PropOp31
 70
     1
102
RTVSPost2010Prop32
280
     0
102
RTVSPost2010PropOp32
 70
     1
102
RTVSPost2010Prop33
280
     0
102
RTVSPost2010PropOp33
 70
     1
102
RTVSPost2010Prop34
280
     0
102
RTVSPost2010PropOp34
 70
     1
102
RTVSPost2010Prop35
280
     0
102
RTVSPost2010PropOp35
 70
     1
102
RTVSPost2010Prop36
280
     0
102
RTVSPost2010PropOp36
 70
     1
102
RTVSPost2010Prop37
 90
       50
102
RTVSPost2010PropOp37
 70
     1
102
RTVSPost2010Prop38
140
0.0
102
RTVSPost2010PropOp38
 70
     1
102
RTVSPost2010Prop39
140
1.0
102
RTVSPost2010PropOp39
 70
     1
102
RTVSPost2010Prop40
 90
        0
102
RTVSPost2010PropOp40
 70
     1
102
RTVSPost2010Prop41ColorIndex
 90
       18
102
RTVSPost2010Prop41ColorRGB
 90
        0
102
RTVSPost2010PropOp41
 70
     1
102
RTVSPost2010Prop42
 90
       50
102
RTVSPost2010PropOp42
 70
     1
102
RTVSPost2010Prop43
 90
        3
102
RTVSPost2010PropOp43
 70
     1
102
RTVSPost2010Prop44ColorIndex
 90
        5
102
RTVSPost2010Prop44ColorRGB
 90
      255
102
RTVSPost2010PropOp44
 70
     1
102
RTVSPost2010Prop45
280
     0
102
RTVSPost2010PropOp45
 70
     1
102
RTVSPost2010Prop46
 90
       50
102
RTVSPost2010PropOp46
 70
     1
102
RTVSPost2010Prop47
 90
       50
102
RTVSPost2010PropOp47
 70
     1
102
RTVSPost2010Prop48
 90
       50
102
RTVSPost2010PropOp48
 70
     1
102
RTVSPost2010Prop49
280
     0
102
RTVSPost2010PropOp49
 70
     1
102
RTVSPost2010Prop50
 90
       50
102
RTVSPost2010PropOp50
 70
     1
102
RTVSPost2010Prop51ColorIndex
 90
      256
102
RTVSPost2010Prop51ColorRGB
 90
-16777216
102
RTVSPost2010PropOp51
 70
     0
102
RTVSPost2010Prop52
140
1.0
102
RTVSPost2010PropOp52
 70
     0
102
RTVSPost2010Prop53
 90
        2
102
RTVSPost2010PropOp53
 70
     1
102
RTVSPost2010Prop54
  1
strokes_ogs.tif
102
RTVSPost2010PropOp54
 70
     1
102
RTVSPost2010Prop55
280
     0
102
RTVSPost2010PropOp55
 70
     1
102
RTVSPost2010Prop56
140
1.0
102
RTVSPost2010PropOp56
 70
     1
102
RTVSPost2010Prop57
140
1.0
102
RTVSPost2010PropOp57
 70
     1
  0
XRECORD
  5
247
102
{ACAD_REACTORS
330
246
102
}
330
246
100
AcDbXrecord
280
     1
102
RTVSPropertyOp0
 70
     1
102
RTVSPropertyOp1
 70
     1
102
RTVSPropertyOp2
 70
     1
102
RTVSPropertyOp3
 70
     1
102
RTVSPropertyOp4
 70
     1
102
RTVSPropertyOp5
 70
     1
102
RTVSPropertyOp6
 70
     1
102
RTVSPropertyOp7
 70
     1
102
RTVSPropertyOp8
 70
     1
102
RTVSPropertyOp9
 70
     1
102
RTVSPropertyOp10
 70
     1
102
RTVSPropertyOp11
 70
     1
102
RTVSPropertyOp12
 70
     1
102
RTVSPropertyOp13
 70
     1
102
RTVSPropertyOp14
 70
     1
102
RTVSPropertyOp15
 70
     1
102
RTVSPropertyOp16
 70
     1
102
RTVSPropertyOp17
 70
     1
102
RTVSPropertyOp18
 70
     1
102
RTVSPropertyOp19
 70
     1
102
RTVSPropertyOp20
 70
     1
102
RTVSPropertyOp21
 70
     1
102
RTVSPropertyOp22
 70
     1
102
RTVSPropertyOp23
 70
     1
102
RTVSPropertyOp24
 70
     1
102
RTVSPropertyOp25
 70
     1
102
RTVSPropertyOp26
 70
     1
102
RTVSPropertyOp27
 70
     1
102
RTVSPropertyOp28
 70
     1
102
RTVSPropertyOp29
 70
     1
102
RTVSPropertyOp30
 70
     1
102
RTVSPropertyOp31
 70
     1
102
RTVSPropertyOp32
 70
     1
102
RTVSPropertyOp33
 70
     1
102
RTVSPropertyOp34
 70
     1
102
RTVSPropertyOp35
 70
     1
102
RTVSPropertyOp36
 70
     1
102
RTVSPropertyOp37
 70
     1
102
RTVSPropertyOp38
 70
     1
102
RTVSPropertyOp39
 70
     1
102
RTVSPropertyOp40
 70
     1
102
RTVSPropertyOp41
 70
     1
102
RTVSPropertyOp42
 70
     1
102
RTVSPropertyOp43
 70
     1
102
RTVSPropertyOp44
 70
     1
102
RTVSPropertyOp45
 70
     1
102
RTVSPropertyOp46
 70
     1
102
RTVSPropertyOp47
 70
     1
102
RTVSPropertyOp48
 70
     1
102
RTVSPropertyOp49
 70
     1
102
RTVSPropertyOp50
 70
     1
102
RTVSPropertyOp51
 70
     0
102
RTVSPropertyOp52
 70
     0
102
RTVSPropertyOp53
 70
     1
102
RTVSPropertyOp54
 70
     1
102
RTVSPropertyOp55
 70
     1
102
RTVSPropertyOp56
 70
     1
102
RTVSPropertyOp57
 70
     1
102
RTVSPost2010Prop28
280
     0
102
RTVSPost2010PropOp28
 70
     1
102
RTVSPost2010Prop29
280
     1
102
RTVSPost2010PropOp29
 70
     1
102
RTVSPost2010Prop30
280
     1
102
RTVSPost2010PropOp30
 70
     1
102
RTVSPost2010Prop31
280
     0
102
RTVSPost2010PropOp31
 70
     1
102
RTVSPost2010Prop32
280
     0
102
RTVSPost2010PropOp32
 70
     1
102
RTVSPost2010Prop33
280
     0
102
RTVSPost2010PropOp33
 70
     1
102
RTVSPost2010Prop34
280
     0
102
RTVSPost2010PropOp34
 70
     1
102
RTVSPost2010Prop35
280
     0
102
RTVSPost2010PropOp35
 70
     1
102
RTVSPost2010Prop36
280
     0
102
RTVSPost2010PropOp36
 70
     1
102
RTVSPost2010Prop37
 90
       50
102
RTVSPost2010PropOp37
 70
     1
102
RTVSPost2010Prop38
140
0.0
102
RTVSPost2010PropOp38
 70
     1
102
RTVSPost2010Prop39
140
1.0
102
RTVSPost2010PropOp39
 70
     1
102
RTVSPost2010Prop40
 90
        0
102
RTVSPost2010PropOp40
 70
     1
102
RTVSPost2010Prop41ColorIndex
 90
       18
102
RTVSPost2010Prop41ColorRGB
 90
        0
102
RTVSPost2010PropOp41
 70
     1
102
RTVSPost2010Prop42
 90
       50
102
RTVSPost2010PropOp42
 70
     1
102
RTVSPost2010Prop43
 90
        3
102
RTVSPost2010PropOp43
 70
     1
102
RTVSPost2010Prop44ColorIndex
 90
        5
102
RTVSPost2010Prop44ColorRGB
 90
      255
102
RTVSPost2010PropOp44
 70
     1
102
RTVSPost2010Prop45
280
     0
102
RTVSPost2010PropOp45
 70
     1
102
RTVSPost2010Prop46
 90
       50
102
RTVSPost2010PropOp46
 70
     1
102
RTVSPost2010Prop47
 90
       50
102
RTVSPost2010PropOp47
 70
     1
102
RTVSPost2010Prop48
 90
       50
102
RTVSPost2010PropOp48
 70
     1
102
RTVSPost2010Prop49
280
     0
102
RTVSPost2010PropOp49
 70
     1
102
RTVSPost2010Prop50
 90
       50
102
RTVSPost2010PropOp50
 70
     1
102
RTVSPost2010Prop51ColorIndex
 90
      256
102
RTVSPost2010Prop51ColorRGB
 90
-16777216
102
RTVSPost2010PropOp51
 70
     0
102
RTVSPost2010Prop52
140
1.0
102
RTVSPost2010PropOp52
 70
     0
102
RTVSPost2010Prop53
 90
        2
102
RTVSPost2010PropOp53
 70
     1
102
RTVSPost2010Prop54
  1
strokes_ogs.tif
102
RTVSPost2010PropOp54
 70
     1
102
RTVSPost2010Prop55
280
     0
102
RTVSPost2010PropOp55
 70
     1
102
RTVSPost2010Prop56
140
1.0
102
RTVSPost2010PropOp56
 70
     1
102
RTVSPost2010Prop57
140
1.0
102
RTVSPost2010PropOp57
 70
     1
  0
XRECORD
  5
24F
102
{ACAD_REACTORS
330
24E
102
}
330
24E
100
AcDbXrecord
280
     1
102
RTVSPropertyOp0
 70
     1
102
RTVSPropertyOp1
 70
     1
102
RTVSPropertyOp2
 70
     1
102
RTVSPropertyOp3
 70
     1
102
RTVSPropertyOp4
 70
     1
102
RTVSPropertyOp5
 70
     1
102
RTVSPropertyOp6
 70
     1
102
RTVSPropertyOp7
 70
     1
102
RTVSPropertyOp8
 70
     1
102
RTVSPropertyOp9
 70
     1
102
RTVSPropertyOp10
 70
     1
102
RTVSPropertyOp11
 70
     1
102
RTVSPropertyOp12
 70
     1
102
RTVSPropertyOp13
 70
     1
102
RTVSPropertyOp14
 70
     1
102
RTVSPropertyOp15
 70
     1
102
RTVSPropertyOp16
 70
     1
102
RTVSPropertyOp17
 70
     1
102
RTVSPropertyOp18
 70
     1
102
RTVSPropertyOp19
 70
     1
102
RTVSPropertyOp20
 70
     1
102
RTVSPropertyOp21
 70
     1
102
RTVSPropertyOp22
 70
     1
102
RTVSPropertyOp23
 70
     1
102
RTVSPropertyOp24
 70
     1
102
RTVSPropertyOp25
 70
     1
102
RTVSPropertyOp26
 70
     1
102
RTVSPropertyOp27
 70
     1
102
RTVSPropertyOp28
 70
     1
102
RTVSPropertyOp29
 70
     1
102
RTVSPropertyOp30
 70
     1
102
RTVSPropertyOp31
 70
     1
102
RTVSPropertyOp32
 70
     1
102
RTVSPropertyOp33
 70
     1
102
RTVSPropertyOp34
 70
     1
102
RTVSPropertyOp35
 70
     1
102
RTVSPropertyOp36
 70
     1
102
RTVSPropertyOp37
 70
     1
102
RTVSPropertyOp38
 70
     1
102
RTVSPropertyOp39
 70
     1
102
RTVSPropertyOp40
 70
     1
102
RTVSPropertyOp41
 70
     1
102
RTVSPropertyOp42
 70
     1
102
RTVSPropertyOp43
 70
     1
102
RTVSPropertyOp44
 70
     1
102
RTVSPropertyOp45
 70
     1
102
RTVSPropertyOp46
 70
     1
102
RTVSPropertyOp47
 70
     1
102
RTVSPropertyOp48
 70
     1
102
RTVSPropertyOp49
 70
     1
102
RTVSPropertyOp50
 70
     1
102
RTVSPropertyOp51
 70
     0
102
RTVSPropertyOp52
 70
     0
102
RTVSPropertyOp53
 70
     1
102
RTVSPropertyOp54
 70
     1
102
RTVSPropertyOp55
 70
     1
102
RTVSPropertyOp56
 70
     1
102
RTVSPropertyOp57
 70
     1
102
RTVSPost2010Prop28
280
     0
102
RTVSPost2010PropOp28
 70
     1
102
RTVSPost2010Prop29
280
     1
102
RTVSPost2010PropOp29
 70
     1
102
RTVSPost2010Prop30
280
     1
102
RTVSPost2010PropOp30
 70
     1
102
RTVSPost2010Prop31
280
     0
102
RTVSPost2010PropOp31
 70
     1
102
RTVSPost2010Prop32
280
     0
102
RTVSPost2010PropOp32
 70
     1
102
RTVSPost2010Prop33
280
     0
102
RTVSPost2010PropOp33
 70
     1
102
RTVSPost2010Prop34
280
     0
102
RTVSPost2010PropOp34
 70
     1
102
RTVSPost2010Prop35
280
     0
102
RTVSPost2010PropOp35
 70
     1
102
RTVSPost2010Prop36
280
     0
102
RTVSPost2010PropOp36
 70
     1
102
RTVSPost2010Prop37
 90
       50
102
RTVSPost2010PropOp37
 70
     1
102
RTVSPost2010Prop38
140
0.0
102
RTVSPost2010PropOp38
 70
     1
102
RTVSPost2010Prop39
140
1.0
102
RTVSPost2010PropOp39
 70
     1
102
RTVSPost2010Prop40
 90
        0
102
RTVSPost2010PropOp40
 70
     1
102
RTVSPost2010Prop41ColorIndex
 90
       18
102
RTVSPost2010Prop41ColorRGB
 90
        0
102
RTVSPost2010PropOp41
 70
     1
102
RTVSPost2010Prop42
 90
       50
102
RTVSPost2010PropOp42
 70
     1
102
RTVSPost2010Prop43
 90
        3
102
RTVSPost2010PropOp43
 70
     1
102
RTVSPost2010Prop44ColorIndex
 90
        5
102
RTVSPost2010Prop44ColorRGB
 90
      255
102
RTVSPost2010PropOp44
 70
     1
102
RTVSPost2010Prop45
280
     0
102
RTVSPost2010PropOp45
 70
     1
102
RTVSPost2010Prop46
 90
       50
102
RTVSPost2010PropOp46
 70
     1
102
RTVSPost2010Prop47
 90
       50
102
RTVSPost2010PropOp47
 70
     1
102
RTVSPost2010Prop48
 90
       50
102
RTVSPost2010PropOp48
 70
     1
102
RTVSPost2010Prop49
280
     0
102
RTVSPost2010PropOp49
 70
     1
102
RTVSPost2010Prop50
 90
       50
102
RTVSPost2010PropOp50
 70
     1
102
RTVSPost2010Prop51ColorIndex
 90
      256
102
RTVSPost2010Prop51ColorRGB
 90
-16777216
102
RTVSPost2010PropOp51
 70
     0
102
RTVSPost2010Prop52
140
1.0
102
RTVSPost2010PropOp52
 70
     0
102
RTVSPost2010Prop53
 90
        2
102
RTVSPost2010PropOp53
 70
     1
102
RTVSPost2010Prop54
  1
strokes_ogs.tif
102
RTVSPost2010PropOp54
 70
     1
102
RTVSPost2010Prop55
280
     0
102
RTVSPost2010PropOp55
 70
     1
102
RTVSPost2010Prop56
140
1.0
102
RTVSPost2010PropOp56
 70
     1
102
RTVSPost2010Prop57
140
1.0
102
RTVSPost2010PropOp57
 70
     1
  0
XRECORD
  5
243
102
{ACAD_REACTORS
330
242
102
}
330
242
100
AcDbXrecord
280
     1
102
RTVSPropertyOp0
 70
     1
102
RTVSPropertyOp1
 70
     1
102
RTVSPropertyOp2
 70
     1
102
RTVSPropertyOp3
 70
     1
102
RTVSPropertyOp4
 70
     1
102
RTVSPropertyOp5
 70
     1
102
RTVSPropertyOp6
 70
     1
102
RTVSPropertyOp7
 70
     1
102
RTVSPropertyOp8
 70
     1
102
RTVSPropertyOp9
 70
     1
102
RTVSPropertyOp10
 70
     1
102
RTVSPropertyOp11
 70
     1
102
RTVSPropertyOp12
 70
     1
102
RTVSPropertyOp13
 70
     1
102
RTVSPropertyOp14
 70
     1
102
RTVSPropertyOp15
 70
     1
102
RTVSPropertyOp16
 70
     1
102
RTVSPropertyOp17
 70
     1
102
RTVSPropertyOp18
 70
     1
102
RTVSPropertyOp19
 70
     1
102
RTVSPropertyOp20
 70
     1
102
RTVSPropertyOp21
 70
     1
102
RTVSPropertyOp22
 70
     1
102
RTVSPropertyOp23
 70
     1
102
RTVSPropertyOp24
 70
     1
102
RTVSPropertyOp25
 70
     1
102
RTVSPropertyOp26
 70
     1
102
RTVSPropertyOp27
 70
     1
102
RTVSPropertyOp28
 70
     1
102
RTVSPropertyOp29
 70
     1
102
RTVSPropertyOp30
 70
     1
102
RTVSPropertyOp31
 70
     1
102
RTVSPropertyOp32
 70
     1
102
RTVSPropertyOp33
 70
     1
102
RTVSPropertyOp34
 70
     1
102
RTVSPropertyOp35
 70
     1
102
RTVSPropertyOp36
 70
     1
102
RTVSPropertyOp37
 70
     1
102
RTVSPropertyOp38
 70
     1
102
RTVSPropertyOp39
 70
     1
102
RTVSPropertyOp40
 70
     1
102
RTVSPropertyOp41
 70
     1
102
RTVSPropertyOp42
 70
     1
102
RTVSPropertyOp43
 70
     1
102
RTVSPropertyOp44
 70
     1
102
RTVSPropertyOp45
 70
     1
102
RTVSPropertyOp46
 70
     1
102
RTVSPropertyOp47
 70
     1
102
RTVSPropertyOp48
 70
     1
102
RTVSPropertyOp49
 70
     1
102
RTVSPropertyOp50
 70
     1
102
RTVSPropertyOp51
 70
     0
102
RTVSPropertyOp52
 70
     0
102
RTVSPropertyOp53
 70
     1
102
RTVSPropertyOp54
 70
     1
102
RTVSPropertyOp55
 70
     1
102
RTVSPropertyOp56
 70
     1
102
RTVSPropertyOp57
 70
     1
102
RTVSPost2010Prop28
280
     0
102
RTVSPost2010PropOp28
 70
     1
102
RTVSPost2010Prop29
280
     1
102
RTVSPost2010PropOp29
 70
     1
102
RTVSPost2010Prop30
280
     1
102
RTVSPost2010PropOp30
 70
     1
102
RTVSPost2010Prop31
280
     0
102
RTVSPost2010PropOp31
 70
     1
102
RTVSPost2010Prop32
280
     0
102
RTVSPost2010PropOp32
 70
     1
102
RTVSPost2010Prop33
280
     0
102
RTVSPost2010PropOp33
 70
     1
102
RTVSPost2010Prop34
280
     0
102
RTVSPost2010PropOp34
 70
     1
102
RTVSPost2010Prop35
280
     0
102
RTVSPost2010PropOp35
 70
     1
102
RTVSPost2010Prop36
280
     0
102
RTVSPost2010PropOp36
 70
     1
102
RTVSPost2010Prop37
 90
       50
102
RTVSPost2010PropOp37
 70
     1
102
RTVSPost2010Prop38
140
0.0
102
RTVSPost2010PropOp38
 70
     1
102
RTVSPost2010Prop39
140
1.0
102
RTVSPost2010PropOp39
 70
     1
102
RTVSPost2010Prop40
 90
        0
102
RTVSPost2010PropOp40
 70
     1
102
RTVSPost2010Prop41ColorIndex
 90
       18
102
RTVSPost2010Prop41ColorRGB
 90
        0
102
RTVSPost2010PropOp41
 70
     1
102
RTVSPost2010Prop42
 90
       50
102
RTVSPost2010PropOp42
 70
     1
102
RTVSPost2010Prop43
 90
        3
102
RTVSPost2010PropOp43
 70
     1
102
RTVSPost2010Prop44ColorIndex
 90
        5
102
RTVSPost2010Prop44ColorRGB
 90
      255
102
RTVSPost2010PropOp44
 70
     1
102
RTVSPost2010Prop45
280
     0
102
RTVSPost2010PropOp45
 70
     1
102
RTVSPost2010Prop46
 90
       50
102
RTVSPost2010PropOp46
 70
     1
102
RTVSPost2010Prop47
 90
       50
102
RTVSPost2010PropOp47
 70
     1
102
RTVSPost2010Prop48
 90
       50
102
RTVSPost2010PropOp48
 70
     1
102
RTVSPost2010Prop49
280
     0
102
RTVSPost2010PropOp49
 70
     1
102
RTVSPost2010Prop50
 90
       50
102
RTVSPost2010PropOp50
 70
     1
102
RTVSPost2010Prop51ColorIndex
 90
      256
102
RTVSPost2010Prop51ColorRGB
 90
-16777216
102
RTVSPost2010PropOp51
 70
     0
102
RTVSPost2010Prop52
140
1.0
102
RTVSPost2010PropOp52
 70
     0
102
RTVSPost2010Prop53
 90
        2
102
RTVSPost2010PropOp53
 70
     1
102
RTVSPost2010Prop54
  1
strokes_ogs.tif
102
RTVSPost2010PropOp54
 70
     1
102
RTVSPost2010Prop55
280
     0
102
RTVSPost2010PropOp55
 70
     1
102
RTVSPost2010Prop56
140
1.0
102
RTVSPost2010PropOp56
 70
     1
102
RTVSPost2010Prop57
140
1.0
102
RTVSPost2010PropOp57
 70
     1
  0
XRECORD
  5
245
102
{ACAD_REACTORS
330
244
102
}
330
244
100
AcDbXrecord
280
     1
102
RTVSPropertyOp0
 70
     1
102
RTVSPropertyOp1
 70
     1
102
RTVSPropertyOp2
 70
     1
102
RTVSPropertyOp3
 70
     1
102
RTVSPropertyOp4
 70
     1
102
RTVSPropertyOp5
 70
     1
102
RTVSPropertyOp6
 70
     1
102
RTVSPropertyOp7
 70
     1
102
RTVSPropertyOp8
 70
     1
102
RTVSPropertyOp9
 70
     1
102
RTVSPropertyOp10
 70
     1
102
RTVSPropertyOp11
 70
     1
102
RTVSPropertyOp12
 70
     1
102
RTVSPropertyOp13
 70
     1
102
RTVSPropertyOp14
 70
     1
102
RTVSPropertyOp15
 70
     1
102
RTVSPropertyOp16
 70
     1
102
RTVSPropertyOp17
 70
     1
102
RTVSPropertyOp18
 70
     1
102
RTVSPropertyOp19
 70
     1
102
RTVSPropertyOp20
 70
     1
102
RTVSPropertyOp21
 70
     1
102
RTVSPropertyOp22
 70
     1
102
RTVSPropertyOp23
 70
     1
102
RTVSPropertyOp24
 70
     1
102
RTVSPropertyOp25
 70
     1
102
RTVSPropertyOp26
 70
     1
102
RTVSPropertyOp27
 70
     1
102
RTVSPropertyOp28
 70
     1
102
RTVSPropertyOp29
 70
     1
102
RTVSPropertyOp30
 70
     1
102
RTVSPropertyOp31
 70
     1
102
RTVSPropertyOp32
 70
     1
102
RTVSPropertyOp33
 70
     1
102
RTVSPropertyOp34
 70
     1
102
RTVSPropertyOp35
 70
     1
102
RTVSPropertyOp36
 70
     1
102
RTVSPropertyOp37
 70
     1
102
RTVSPropertyOp38
 70
     1
102
RTVSPropertyOp39
 70
     1
102
RTVSPropertyOp40
 70
     1
102
RTVSPropertyOp41
 70
     1
102
RTVSPropertyOp42
 70
     1
102
RTVSPropertyOp43
 70
     1
102
RTVSPropertyOp44
 70
     1
102
RTVSPropertyOp45
 70
     1
102
RTVSPropertyOp46
 70
     1
102
RTVSPropertyOp47
 70
     1
102
RTVSPropertyOp48
 70
     1
102
RTVSPropertyOp49
 70
     1
102
RTVSPropertyOp50
 70
     1
102
RTVSPropertyOp51
 70
     0
102
RTVSPropertyOp52
 70
     0
102
RTVSPropertyOp53
 70
     1
102
RTVSPropertyOp54
 70
     1
102
RTVSPropertyOp55
 70
     1
102
RTVSPropertyOp56
 70
     1
102
RTVSPropertyOp57
 70
     1
102
RTVSPost2010Prop28
280
     0
102
RTVSPost2010PropOp28
 70
     1
102
RTVSPost2010Prop29
280
     1
102
RTVSPost2010PropOp29
 70
     1
102
RTVSPost2010Prop30
280
     1
102
RTVSPost2010PropOp30
 70
     1
102
RTVSPost2010Prop31
280
     0
102
RTVSPost2010PropOp31
 70
     1
102
RTVSPost2010Prop32
280
     0
102
RTVSPost2010PropOp32
 70
     1
102
RTVSPost2010Prop33
280
     0
102
RTVSPost2010PropOp33
 70
     1
102
RTVSPost2010Prop34
280
     0
102
RTVSPost2010PropOp34
 70
     1
102
RTVSPost2010Prop35
280
     0
102
RTVSPost2010PropOp35
 70
     1
102
RTVSPost2010Prop36
280
     0
102
RTVSPost2010PropOp36
 70
     1
102
RTVSPost2010Prop37
 90
       50
102
RTVSPost2010PropOp37
 70
     1
102
RTVSPost2010Prop38
140
0.0
102
RTVSPost2010PropOp38
 70
     1
102
RTVSPost2010Prop39
140
1.0
102
RTVSPost2010PropOp39
 70
     1
102
RTVSPost2010Prop40
 90
        0
102
RTVSPost2010PropOp40
 70
     1
102
RTVSPost2010Prop41ColorIndex
 90
       18
102
RTVSPost2010Prop41ColorRGB
 90
        0
102
RTVSPost2010PropOp41
 70
     1
102
RTVSPost2010Prop42
 90
       50
102
RTVSPost2010PropOp42
 70
     1
102
RTVSPost2010Prop43
 90
        3
102
RTVSPost2010PropOp43
 70
     1
102
RTVSPost2010Prop44ColorIndex
 90
        5
102
RTVSPost2010Prop44ColorRGB
 90
      255
102
RTVSPost2010PropOp44
 70
     1
102
RTVSPost2010Prop45
280
     0
102
RTVSPost2010PropOp45
 70
     1
102
RTVSPost2010Prop46
 90
       50
102
RTVSPost2010PropOp46
 70
     1
102
RTVSPost2010Prop47
 90
       50
102
RTVSPost2010PropOp47
 70
     1
102
RTVSPost2010Prop48
 90
       50
102
RTVSPost2010PropOp48
 70
     1
102
RTVSPost2010Prop49
280
     0
102
RTVSPost2010PropOp49
 70
     1
102
RTVSPost2010Prop50
 90
       50
102
RTVSPost2010PropOp50
 70
     1
102
RTVSPost2010Prop51ColorIndex
 90
      256
102
RTVSPost2010Prop51ColorRGB
 90
-16777216
102
RTVSPost2010PropOp51
 70
     0
102
RTVSPost2010Prop52
140
1.0
102
RTVSPost2010PropOp52
 70
     0
102
RTVSPost2010Prop53
 90
        2
102
RTVSPost2010PropOp53
 70
     1
102
RTVSPost2010Prop54
  1
strokes_ogs.tif
102
RTVSPost2010PropOp54
 70
     1
102
RTVSPost2010Prop55
280
     0
102
RTVSPost2010PropOp55
 70
     1
102
RTVSPost2010Prop56
140
1.0
102
RTVSPost2010PropOp56
 70
     1
102
RTVSPost2010Prop57
140
1.0
102
RTVSPost2010PropOp57
 70
     1
  0
XRECORD
  5
255
102
{ACAD_REACTORS
330
254
102
}
330
254
100
AcDbXrecord
280
     1
102
RTVSPropertyOp0
 70
     0
102
RTVSPropertyOp1
 70
     0
102
RTVSPropertyOp2
 70
     0
102
RTVSPropertyOp3
 70
     0
102
RTVSPropertyOp4
 70
     0
102
RTVSPropertyOp5
 70
     0
102
RTVSPropertyOp6
 70
     0
102
RTVSPropertyOp7
 70
     0
102
RTVSPropertyOp8
 70
     0
102
RTVSPropertyOp9
 70
     0
102
RTVSPropertyOp10
 70
     0
102
RTVSPropertyOp11
 70
     0
102
RTVSPropertyOp12
 70
     0
102
RTVSPropertyOp13
 70
     0
102
RTVSPropertyOp14
 70
     2
102
RTVSPropertyOp15
 70
     0
102
RTVSPropertyOp16
 70
     0
102
RTVSPropertyOp17
 70
     0
102
RTVSPropertyOp18
 70
     0
102
RTVSPropertyOp19
 70
     0
102
RTVSPropertyOp20
 70
     0
102
RTVSPropertyOp21
 70
     0
102
RTVSPropertyOp22
 70
     0
102
RTVSPropertyOp23
 70
     0
102
RTVSPropertyOp24
 70
     0
102
RTVSPropertyOp25
 70
     0
102
RTVSPropertyOp26
 70
     0
102
RTVSPropertyOp27
 70
     0
102
RTVSPropertyOp28
 70
     0
102
RTVSPropertyOp29
 70
     0
102
RTVSPropertyOp30
 70
     0
102
RTVSPropertyOp31
 70
     0
102
RTVSPropertyOp32
 70
     0
102
RTVSPropertyOp33
 70
     0
102
RTVSPropertyOp34
 70
     0
102
RTVSPropertyOp35
 70
     0
102
RTVSPropertyOp36
 70
     0
102
RTVSPropertyOp37
 70
     0
102
RTVSPropertyOp38
 70
     0
102
RTVSPropertyOp39
 70
     0
102
RTVSPropertyOp40
 70
     0
102
RTVSPropertyOp41
 70
     0
102
RTVSPropertyOp42
 70
     0
102
RTVSPropertyOp43
 70
     0
102
RTVSPropertyOp44
 70
     0
102
RTVSPropertyOp45
 70
     0
102
RTVSPropertyOp46
 70
     0
102
RTVSPropertyOp47
 70
     0
102
RTVSPropertyOp48
 70
     0
102
RTVSPropertyOp49
 70
     0
102
RTVSPropertyOp50
 70
     0
102
RTVSPropertyOp51
 70
     0
102
RTVSPropertyOp52
 70
     0
102
RTVSPropertyOp53
 70
     0
102
RTVSPropertyOp54
 70
     0
102
RTVSPropertyOp55
 70
     0
102
RTVSPropertyOp56
 70
     0
102
RTVSPropertyOp57
 70
     0
102
RTVSPost2010Prop28
280
     0
102
RTVSPost2010PropOp28
 70
     0
102
RTVSPost2010Prop29
280
     1
102
RTVSPost2010PropOp29
 70
     0
102
RTVSPost2010Prop30
280
     1
102
RTVSPost2010PropOp30
 70
     0
102
RTVSPost2010Prop31
280
     0
102
RTVSPost2010PropOp31
 70
     0
102
RTVSPost2010Prop32
280
     0
102
RTVSPost2010PropOp32
 70
     0
102
RTVSPost2010Prop33
280
     0
102
RTVSPost2010PropOp33
 70
     0
102
RTVSPost2010Prop34
280
     0
102
RTVSPost2010PropOp34
 70
     0
102
RTVSPost2010Prop35
280
     0
102
RTVSPost2010PropOp35
 70
     0
102
RTVSPost2010Prop36
280
     0
102
RTVSPost2010PropOp36
 70
     0
102
RTVSPost2010Prop37
 90
       50
102
RTVSPost2010PropOp37
 70
     0
102
RTVSPost2010Prop38
140
0.0
102
RTVSPost2010PropOp38
 70
     0
102
RTVSPost2010Prop39
140
1.0
102
RTVSPost2010PropOp39
 70
     0
102
RTVSPost2010Prop40
 90
        0
102
RTVSPost2010PropOp40
 70
     0
102
RTVSPost2010Prop41ColorIndex
 90
       18
102
RTVSPost2010Prop41ColorRGB
 90
        0
102
RTVSPost2010PropOp41
 70
     0
102
RTVSPost2010Prop42
 90
       50
102
RTVSPost2010PropOp42
 70
     0
102
RTVSPost2010Prop43
 90
        3
102
RTVSPost2010PropOp43
 70
     0
102
RTVSPost2010Prop44ColorIndex
 90
        5
102
RTVSPost2010Prop44ColorRGB
 90
      255
102
RTVSPost2010PropOp44
 70
     0
102
RTVSPost2010Prop45
280
     0
102
RTVSPost2010PropOp45
 70
     0
102
RTVSPost2010Prop46
 90
       50
102
RTVSPost2010PropOp46
 70
     0
102
RTVSPost2010Prop47
 90
       50
102
RTVSPost2010PropOp47
 70
     0
102
RTVSPost2010Prop48
 90
       50
102
RTVSPost2010PropOp48
 70
     0
102
RTVSPost2010Prop49
280
     0
102
RTVSPost2010PropOp49
 70
     0
102
RTVSPost2010Prop50
 90
       50
102
RTVSPost2010PropOp50
 70
     0
102
RTVSPost2010Prop51ColorIndex
 90
      256
102
RTVSPost2010Prop51ColorRGB
 90
-16777216
102
RTVSPost2010PropOp51
 70
     0
102
RTVSPost2010Prop52
140
1.0
102
RTVSPost2010PropOp52
 70
     0
102
RTVSPost2010Prop53
 90
        2
102
RTVSPost2010PropOp53
 70
     0
102
RTVSPost2010Prop54
  1
strokes_ogs.tif
102
RTVSPost2010PropOp54
 70
     0
102
RTVSPost2010Prop55
280
     0
102
RTVSPost2010PropOp55
 70
     0
102
RTVSPost2010Prop56
140
1.0
102
RTVSPost2010PropOp56
 70
     0
102
RTVSPost2010Prop57
140
1.0
102
RTVSPost2010PropOp57
 70
     0
  0
XRECORD
  5
24D
102
{ACAD_REACTORS
330
24C
102
}
330
24C
100
AcDbXrecord
280
     1
102
RTVSPropertyOp0
 70
     1
102
RTVSPropertyOp1
 70
     1
102
RTVSPropertyOp2
 70
     1
102
RTVSPropertyOp3
 70
     1
102
RTVSPropertyOp4
 70
     1
102
RTVSPropertyOp5
 70
     1
102
RTVSPropertyOp6
 70
     1
102
RTVSPropertyOp7
 70
     1
102
RTVSPropertyOp8
 70
     1
102
RTVSPropertyOp9
 70
     1
102
RTVSPropertyOp10
 70
     1
102
RTVSPropertyOp11
 70
     1
102
RTVSPropertyOp12
 70
     1
102
RTVSPropertyOp13
 70
     1
102
RTVSPropertyOp14
 70
     1
102
RTVSPropertyOp15
 70
     1
102
RTVSPropertyOp16
 70
     1
102
RTVSPropertyOp17
 70
     1
102
RTVSPropertyOp18
 70
     1
102
RTVSPropertyOp19
 70
     1
102
RTVSPropertyOp20
 70
     1
102
RTVSPropertyOp21
 70
     1
102
RTVSPropertyOp22
 70
     1
102
RTVSPropertyOp23
 70
     1
102
RTVSPropertyOp24
 70
     1
102
RTVSPropertyOp25
 70
     1
102
RTVSPropertyOp26
 70
     1
102
RTVSPropertyOp27
 70
     1
102
RTVSPropertyOp28
 70
     1
102
RTVSPropertyOp29
 70
     1
102
RTVSPropertyOp30
 70
     1
102
RTVSPropertyOp31
 70
     1
102
RTVSPropertyOp32
 70
     1
102
RTVSPropertyOp33
 70
     1
102
RTVSPropertyOp34
 70
     1
102
RTVSPropertyOp35
 70
     1
102
RTVSPropertyOp36
 70
     1
102
RTVSPropertyOp37
 70
     1
102
RTVSPropertyOp38
 70
     1
102
RTVSPropertyOp39
 70
     1
102
RTVSPropertyOp40
 70
     1
102
RTVSPropertyOp41
 70
     1
102
RTVSPropertyOp42
 70
     1
102
RTVSPropertyOp43
 70
     1
102
RTVSPropertyOp44
 70
     1
102
RTVSPropertyOp45
 70
     1
102
RTVSPropertyOp46
 70
     1
102
RTVSPropertyOp47
 70
     1
102
RTVSPropertyOp48
 70
     1
102
RTVSPropertyOp49
 70
     1
102
RTVSPropertyOp50
 70
     1
102
RTVSPropertyOp51
 70
     0
102
RTVSPropertyOp52
 70
     0
102
RTVSPropertyOp53
 70
     1
102
RTVSPropertyOp54
 70
     1
102
RTVSPropertyOp55
 70
     1
102
RTVSPropertyOp56
 70
     1
102
RTVSPropertyOp57
 70
     1
102
RTVSPost2010Prop28
280
     0
102
RTVSPost2010PropOp28
 70
     1
102
RTVSPost2010Prop29
280
     1
102
RTVSPost2010PropOp29
 70
     1
102
RTVSPost2010Prop30
280
     1
102
RTVSPost2010PropOp30
 70
     1
102
RTVSPost2010Prop31
280
     0
102
RTVSPost2010PropOp31
 70
     1
102
RTVSPost2010Prop32
280
     0
102
RTVSPost2010PropOp32
 70
     1
102
RTVSPost2010Prop33
280
     0
102
RTVSPost2010PropOp33
 70
     1
102
RTVSPost2010Prop34
280
     0
102
RTVSPost2010PropOp34
 70
     1
102
RTVSPost2010Prop35
280
     0
102
RTVSPost2010PropOp35
 70
     1
102
RTVSPost2010Prop36
280
     0
102
RTVSPost2010PropOp36
 70
     1
102
RTVSPost2010Prop37
 90
       50
102
RTVSPost2010PropOp37
 70
     1
102
RTVSPost2010Prop38
140
0.0
102
RTVSPost2010PropOp38
 70
     1
102
RTVSPost2010Prop39
140
1.0
102
RTVSPost2010PropOp39
 70
     1
102
RTVSPost2010Prop40
 90
        0
102
RTVSPost2010PropOp40
 70
     1
102
RTVSPost2010Prop41ColorIndex
 90
       18
102
RTVSPost2010Prop41ColorRGB
 90
        0
102
RTVSPost2010PropOp41
 70
     1
102
RTVSPost2010Prop42
 90
       50
102
RTVSPost2010PropOp42
 70
     1
102
RTVSPost2010Prop43
 90
        3
102
RTVSPost2010PropOp43
 70
     1
102
RTVSPost2010Prop44ColorIndex
 90
        5
102
RTVSPost2010Prop44ColorRGB
 90
      255
102
RTVSPost2010PropOp44
 70
     1
102
RTVSPost2010Prop45
280
     0
102
RTVSPost2010PropOp45
 70
     1
102
RTVSPost2010Prop46
 90
       50
102
RTVSPost2010PropOp46
 70
     1
102
RTVSPost2010Prop47
 90
       50
102
RTVSPost2010PropOp47
 70
     1
102
RTVSPost2010Prop48
 90
       50
102
RTVSPost2010PropOp48
 70
     1
102
RTVSPost2010Prop49
280
     0
102
RTVSPost2010PropOp49
 70
     1
102
RTVSPost2010Prop50
 90
       50
102
RTVSPost2010PropOp50
 70
     1
102
RTVSPost2010Prop51ColorIndex
 90
      256
102
RTVSPost2010Prop51ColorRGB
 90
-16777216
102
RTVSPost2010PropOp51
 70
     0
102
RTVSPost2010Prop52
140
1.0
102
RTVSPost2010PropOp52
 70
     0
102
RTVSPost2010Prop53
 90
        2
102
RTVSPost2010PropOp53
 70
     1
102
RTVSPost2010Prop54
  1
strokes_ogs.tif
102
RTVSPost2010PropOp54
 70
     1
102
RTVSPost2010Prop55
280
     0
102
RTVSPost2010PropOp55
 70
     1
102
RTVSPost2010Prop56
140
1.0
102
RTVSPost2010PropOp56
 70
     1
102
RTVSPost2010Prop57
140
1.0
102
RTVSPost2010PropOp57
 70
     1
  0
XRECORD
  5
231
102
{ACAD_REACTORS
330
230
102
}
330
230
100
AcDbXrecord
280
     1
102
RTVSPropertyOp0
 70
     1
102
RTVSPropertyOp1
 70
     1
102
RTVSPropertyOp2
 70
     1
102
RTVSPropertyOp3
 70
     1
102
RTVSPropertyOp4
 70
     1
102
RTVSPropertyOp5
 70
     1
102
RTVSPropertyOp6
 70
     1
102
RTVSPropertyOp7
 70
     1
102
RTVSPropertyOp8
 70
     1
102
RTVSPropertyOp9
 70
     1
102
RTVSPropertyOp10
 70
     1
102
RTVSPropertyOp11
 70
     1
102
RTVSPropertyOp12
 70
     1
102
RTVSPropertyOp13
 70
     1
102
RTVSPropertyOp14
 70
     1
102
RTVSPropertyOp15
 70
     1
102
RTVSPropertyOp16
 70
     1
102
RTVSPropertyOp17
 70
     1
102
RTVSPropertyOp18
 70
     1
102
RTVSPropertyOp19
 70
     1
102
RTVSPropertyOp20
 70
     1
102
RTVSPropertyOp21
 70
     1
102
RTVSPropertyOp22
 70
     1
102
RTVSPropertyOp23
 70
     1
102
RTVSPropertyOp24
 70
     1
102
RTVSPropertyOp25
 70
     1
102
RTVSPropertyOp26
 70
     1
102
RTVSPropertyOp27
 70
     1
102
RTVSPropertyOp28
 70
     1
102
RTVSPropertyOp29
 70
     1
102
RTVSPropertyOp30
 70
     1
102
RTVSPropertyOp31
 70
     1
102
RTVSPropertyOp32
 70
     1
102
RTVSPropertyOp33
 70
     1
102
RTVSPropertyOp34
 70
     1
102
RTVSPropertyOp35
 70
     1
102
RTVSPropertyOp36
 70
     1
102
RTVSPropertyOp37
 70
     1
102
RTVSPropertyOp38
 70
     1
102
RTVSPropertyOp39
 70
     1
102
RTVSPropertyOp40
 70
     1
102
RTVSPropertyOp41
 70
     1
102
RTVSPropertyOp42
 70
     1
102
RTVSPropertyOp43
 70
     1
102
RTVSPropertyOp44
 70
     1
102
RTVSPropertyOp45
 70
     1
102
RTVSPropertyOp46
 70
     1
102
RTVSPropertyOp47
 70
     1
102
RTVSPropertyOp48
 70
     1
102
RTVSPropertyOp49
 70
     1
102
RTVSPropertyOp50
 70
     1
102
RTVSPropertyOp51
 70
     0
102
RTVSPropertyOp52
 70
     0
102
RTVSPropertyOp53
 70
     1
102
RTVSPropertyOp54
 70
     1
102
RTVSPropertyOp55
 70
     1
102
RTVSPropertyOp56
 70
     1
102
RTVSPropertyOp57
 70
     1
102
RTVSPost2010Prop28
280
     0
102
RTVSPost2010PropOp28
 70
     1
102
RTVSPost2010Prop29
280
     1
102
RTVSPost2010PropOp29
 70
     1
102
RTVSPost2010Prop30
280
     1
102
RTVSPost2010PropOp30
 70
     1
102
RTVSPost2010Prop31
280
     0
102
RTVSPost2010PropOp31
 70
     1
102
RTVSPost2010Prop32
280
     0
102
RTVSPost2010PropOp32
 70
     1
102
RTVSPost2010Prop33
280
     0
102
RTVSPost2010PropOp33
 70
     1
102
RTVSPost2010Prop34
280
     0
102
RTVSPost2010PropOp34
 70
     1
102
RTVSPost2010Prop35
280
     0
102
RTVSPost2010PropOp35
 70
     1
102
RTVSPost2010Prop36
280
     0
102
RTVSPost2010PropOp36
 70
     1
102
RTVSPost2010Prop37
 90
       50
102
RTVSPost2010PropOp37
 70
     1
102
RTVSPost2010Prop38
140
0.0
102
RTVSPost2010PropOp38
 70
     1
102
RTVSPost2010Prop39
140
1.0
102
RTVSPost2010PropOp39
 70
     1
102
RTVSPost2010Prop40
 90
        0
102
RTVSPost2010PropOp40
 70
     1
102
RTVSPost2010Prop41ColorIndex
 90
       18
102
RTVSPost2010Prop41ColorRGB
 90
        0
102
RTVSPost2010PropOp41
 70
     1
102
RTVSPost2010Prop42
 90
       50
102
RTVSPost2010PropOp42
 70
     1
102
RTVSPost2010Prop43
 90
        3
102
RTVSPost2010PropOp43
 70
     1
102
RTVSPost2010Prop44ColorIndex
 90
        5
102
RTVSPost2010Prop44ColorRGB
 90
      255
102
RTVSPost2010PropOp44
 70
     1
102
RTVSPost2010Prop45
280
     0
102
RTVSPost2010PropOp45
 70
     1
102
RTVSPost2010Prop46
 90
       50
102
RTVSPost2010PropOp46
 70
     1
102
RTVSPost2010Prop47
 90
       50
102
RTVSPost2010PropOp47
 70
     1
102
RTVSPost2010Prop48
 90
       50
102
RTVSPost2010PropOp48
 70
     1
102
RTVSPost2010Prop49
280
     0
102
RTVSPost2010PropOp49
 70
     1
102
RTVSPost2010Prop50
 90
       50
102
RTVSPost2010PropOp50
 70
     1
102
RTVSPost2010Prop51ColorIndex
 90
      256
102
RTVSPost2010Prop51ColorRGB
 90
-16777216
102
RTVSPost2010PropOp51
 70
     0
102
RTVSPost2010Prop52
140
1.0
102
RTVSPost2010PropOp52
 70
     0
102
RTVSPost2010Prop53
 90
        2
102
RTVSPost2010PropOp53
 70
     1
102
RTVSPost2010Prop54
  1
strokes_ogs.tif
102
RTVSPost2010PropOp54
 70
     1
102
RTVSPost2010Prop55
280
     0
102
RTVSPost2010PropOp55
 70
     1
102
RTVSPost2010Prop56
140
1.0
102
RTVSPost2010PropOp56
 70
     1
102
RTVSPost2010Prop57
140
1.0
102
RTVSPost2010PropOp57
 70
     1
  0
XRECORD
  5
233
102
{ACAD_REACTORS
330
232
102
}
330
232
100
AcDbXrecord
280
     1
102
RTVSPropertyOp0
 70
     1
102
RTVSPropertyOp1
 70
     1
102
RTVSPropertyOp2
 70
     1
102
RTVSPropertyOp3
 70
     1
102
RTVSPropertyOp4
 70
     1
102
RTVSPropertyOp5
 70
     1
102
RTVSPropertyOp6
 70
     1
102
RTVSPropertyOp7
 70
     1
102
RTVSPropertyOp8
 70
     1
102
RTVSPropertyOp9
 70
     1
102
RTVSPropertyOp10
 70
     1
102
RTVSPropertyOp11
 70
     1
102
RTVSPropertyOp12
 70
     1
102
RTVSPropertyOp13
 70
     1
102
RTVSPropertyOp14
 70
     1
102
RTVSPropertyOp15
 70
     1
102
RTVSPropertyOp16
 70
     1
102
RTVSPropertyOp17
 70
     1
102
RTVSPropertyOp18
 70
     1
102
RTVSPropertyOp19
 70
     1
102
RTVSPropertyOp20
 70
     1
102
RTVSPropertyOp21
 70
     1
102
RTVSPropertyOp22
 70
     1
102
RTVSPropertyOp23
 70
     1
102
RTVSPropertyOp24
 70
     1
102
RTVSPropertyOp25
 70
     1
102
RTVSPropertyOp26
 70
     1
102
RTVSPropertyOp27
 70
     1
102
RTVSPropertyOp28
 70
     1
102
RTVSPropertyOp29
 70
     1
102
RTVSPropertyOp30
 70
     1
102
RTVSPropertyOp31
 70
     1
102
RTVSPropertyOp32
 70
     1
102
RTVSPropertyOp33
 70
     1
102
RTVSPropertyOp34
 70
     1
102
RTVSPropertyOp35
 70
     1
102
RTVSPropertyOp36
 70
     1
102
RTVSPropertyOp37
 70
     1
102
RTVSPropertyOp38
 70
     1
102
RTVSPropertyOp39
 70
     1
102
RTVSPropertyOp40
 70
     1
102
RTVSPropertyOp41
 70
     1
102
RTVSPropertyOp42
 70
     1
102
RTVSPropertyOp43
 70
     1
102
RTVSPropertyOp44
 70
     1
102
RTVSPropertyOp45
 70
     1
102
RTVSPropertyOp46
 70
     1
102
RTVSPropertyOp47
 70
     1
102
RTVSPropertyOp48
 70
     1
102
RTVSPropertyOp49
 70
     1
102
RTVSPropertyOp50
 70
     1
102
RTVSPropertyOp51
 70
     0
102
RTVSPropertyOp52
 70
     0
102
RTVSPropertyOp53
 70
     1
102
RTVSPropertyOp54
 70
     1
102
RTVSPropertyOp55
 70
     1
102
RTVSPropertyOp56
 70
     1
102
RTVSPropertyOp57
 70
     1
102
RTVSPost2010Prop28
280
     0
102
RTVSPost2010PropOp28
 70
     1
102
RTVSPost2010Prop29
280
     1
102
RTVSPost2010PropOp29
 70
     1
102
RTVSPost2010Prop30
280
     1
102
RTVSPost2010PropOp30
 70
     1
102
RTVSPost2010Prop31
280
     0
102
RTVSPost2010PropOp31
 70
     1
102
RTVSPost2010Prop32
280
     0
102
RTVSPost2010PropOp32
 70
     1
102
RTVSPost2010Prop33
280
     0
102
RTVSPost2010PropOp33
 70
     1
102
RTVSPost2010Prop34
280
     0
102
RTVSPost2010PropOp34
 70
     1
102
RTVSPost2010Prop35
280
     0
102
RTVSPost2010PropOp35
 70
     1
102
RTVSPost2010Prop36
280
     0
102
RTVSPost2010PropOp36
 70
     1
102
RTVSPost2010Prop37
 90
       50
102
RTVSPost2010PropOp37
 70
     1
102
RTVSPost2010Prop38
140
0.0
102
RTVSPost2010PropOp38
 70
     1
102
RTVSPost2010Prop39
140
1.0
102
RTVSPost2010PropOp39
 70
     1
102
RTVSPost2010Prop40
 90
        0
102
RTVSPost2010PropOp40
 70
     1
102
RTVSPost2010Prop41ColorIndex
 90
       18
102
RTVSPost2010Prop41ColorRGB
 90
        0
102
RTVSPost2010PropOp41
 70
     1
102
RTVSPost2010Prop42
 90
       50
102
RTVSPost2010PropOp42
 70
     1
102
RTVSPost2010Prop43
 90
        3
102
RTVSPost2010PropOp43
 70
     1
102
RTVSPost2010Prop44ColorIndex
 90
        5
102
RTVSPost2010Prop44ColorRGB
 90
      255
102
RTVSPost2010PropOp44
 70
     1
102
RTVSPost2010Prop45
280
     0
102
RTVSPost2010PropOp45
 70
     1
102
RTVSPost2010Prop46
 90
       50
102
RTVSPost2010PropOp46
 70
     1
102
RTVSPost2010Prop47
 90
       50
102
RTVSPost2010PropOp47
 70
     1
102
RTVSPost2010Prop48
 90
       50
102
RTVSPost2010PropOp48
 70
     1
102
RTVSPost2010Prop49
280
     0
102
RTVSPost2010PropOp49
 70
     1
102
RTVSPost2010Prop50
 90
       50
102
RTVSPost2010PropOp50
 70
     1
102
RTVSPost2010Prop51ColorIndex
 90
      256
102
RTVSPost2010Prop51ColorRGB
 90
-16777216
102
RTVSPost2010PropOp51
 70
     0
102
RTVSPost2010Prop52
140
1.0
102
RTVSPost2010PropOp52
 70
     0
102
RTVSPost2010Prop53
 90
        2
102
RTVSPost2010PropOp53
 70
     1
102
RTVSPost2010Prop54
  1
strokes_ogs.tif
102
RTVSPost2010PropOp54
 70
     1
102
RTVSPost2010Prop55
280
     0
102
RTVSPost2010PropOp55
 70
     1
102
RTVSPost2010Prop56
140
1.0
102
RTVSPost2010PropOp56
 70
     1
102
RTVSPost2010Prop57
140
1.0
102
RTVSPost2010PropOp57
 70
     1
  0
XRECORD
  5
235
102
{ACAD_REACTORS
330
234
102
}
330
234
100
AcDbXrecord
280
     1
102
RTVSPropertyOp0
 70
     1
102
RTVSPropertyOp1
 70
     1
102
RTVSPropertyOp2
 70
     1
102
RTVSPropertyOp3
 70
     1
102
RTVSPropertyOp4
 70
     1
102
RTVSPropertyOp5
 70
     1
102
RTVSPropertyOp6
 70
     1
102
RTVSPropertyOp7
 70
     1
102
RTVSPropertyOp8
 70
     1
102
RTVSPropertyOp9
 70
     1
102
RTVSPropertyOp10
 70
     1
102
RTVSPropertyOp11
 70
     1
102
RTVSPropertyOp12
 70
     1
102
RTVSPropertyOp13
 70
     1
102
RTVSPropertyOp14
 70
     1
102
RTVSPropertyOp15
 70
     1
102
RTVSPropertyOp16
 70
     1
102
RTVSPropertyOp17
 70
     1
102
RTVSPropertyOp18
 70
     1
102
RTVSPropertyOp19
 70
     1
102
RTVSPropertyOp20
 70
     1
102
RTVSPropertyOp21
 70
     1
102
RTVSPropertyOp22
 70
     1
102
RTVSPropertyOp23
 70
     1
102
RTVSPropertyOp24
 70
     1
102
RTVSPropertyOp25
 70
     1
102
RTVSPropertyOp26
 70
     1
102
RTVSPropertyOp27
 70
     1
102
RTVSPropertyOp28
 70
     1
102
RTVSPropertyOp29
 70
     1
102
RTVSPropertyOp30
 70
     1
102
RTVSPropertyOp31
 70
     1
102
RTVSPropertyOp32
 70
     1
102
RTVSPropertyOp33
 70
     1
102
RTVSPropertyOp34
 70
     1
102
RTVSPropertyOp35
 70
     1
102
RTVSPropertyOp36
 70
     1
102
RTVSPropertyOp37
 70
     1
102
RTVSPropertyOp38
 70
     1
102
RTVSPropertyOp39
 70
     1
102
RTVSPropertyOp40
 70
     1
102
RTVSPropertyOp41
 70
     1
102
RTVSPropertyOp42
 70
     1
102
RTVSPropertyOp43
 70
     1
102
RTVSPropertyOp44
 70
     1
102
RTVSPropertyOp45
 70
     1
102
RTVSPropertyOp46
 70
     1
102
RTVSPropertyOp47
 70
     1
102
RTVSPropertyOp48
 70
     1
102
RTVSPropertyOp49
 70
     1
102
RTVSPropertyOp50
 70
     1
102
RTVSPropertyOp51
 70
     0
102
RTVSPropertyOp52
 70
     0
102
RTVSPropertyOp53
 70
     1
102
RTVSPropertyOp54
 70
     1
102
RTVSPropertyOp55
 70
     1
102
RTVSPropertyOp56
 70
     1
102
RTVSPropertyOp57
 70
     1
102
RTVSPost2010Prop28
280
     0
102
RTVSPost2010PropOp28
 70
     1
102
RTVSPost2010Prop29
280
     1
102
RTVSPost2010PropOp29
 70
     1
102
RTVSPost2010Prop30
280
     1
102
RTVSPost2010PropOp30
 70
     1
102
RTVSPost2010Prop31
280
     0
102
RTVSPost2010PropOp31
 70
     1
102
RTVSPost2010Prop32
280
     0
102
RTVSPost2010PropOp32
 70
     1
102
RTVSPost2010Prop33
280
     0
102
RTVSPost2010PropOp33
 70
     1
102
RTVSPost2010Prop34
280
     0
102
RTVSPost2010PropOp34
 70
     1
102
RTVSPost2010Prop35
280
     0
102
RTVSPost2010PropOp35
 70
     1
102
RTVSPost2010Prop36
280
     0
102
RTVSPost2010PropOp36
 70
     1
102
RTVSPost2010Prop37
 90
       50
102
RTVSPost2010PropOp37
 70
     1
102
RTVSPost2010Prop38
140
0.0
102
RTVSPost2010PropOp38
 70
     1
102
RTVSPost2010Prop39
140
1.0
102
RTVSPost2010PropOp39
 70
     1
102
RTVSPost2010Prop40
 90
        0
102
RTVSPost2010PropOp40
 70
     1
102
RTVSPost2010Prop41ColorIndex
 90
       18
102
RTVSPost2010Prop41ColorRGB
 90
        0
102
RTVSPost2010PropOp41
 70
     1
102
RTVSPost2010Prop42
 90
       50
102
RTVSPost2010PropOp42
 70
     1
102
RTVSPost2010Prop43
 90
        3
102
RTVSPost2010PropOp43
 70
     1
102
RTVSPost2010Prop44ColorIndex
 90
        5
102
RTVSPost2010Prop44ColorRGB
 90
      255
102
RTVSPost2010PropOp44
 70
     1
102
RTVSPost2010Prop45
280
     0
102
RTVSPost2010PropOp45
 70
     1
102
RTVSPost2010Prop46
 90
       50
102
RTVSPost2010PropOp46
 70
     1
102
RTVSPost2010Prop47
 90
       50
102
RTVSPost2010PropOp47
 70
     1
102
RTVSPost2010Prop48
 90
       50
102
RTVSPost2010PropOp48
 70
     1
102
RTVSPost2010Prop49
280
     0
102
RTVSPost2010PropOp49
 70
     1
102
RTVSPost2010Prop50
 90
       50
102
RTVSPost2010PropOp50
 70
     1
102
RTVSPost2010Prop51ColorIndex
 90
      256
102
RTVSPost2010Prop51ColorRGB
 90
-16777216
102
RTVSPost2010PropOp51
 70
     0
102
RTVSPost2010Prop52
140
1.0
102
RTVSPost2010PropOp52
 70
     0
102
RTVSPost2010Prop53
 90
        2
102
RTVSPost2010PropOp53
 70
     1
102
RTVSPost2010Prop54
  1
strokes_ogs.tif
102
RTVSPost2010PropOp54
 70
     1
102
RTVSPost2010Prop55
280
     0
102
RTVSPost2010PropOp55
 70
     1
102
RTVSPost2010Prop56
140
1.0
102
RTVSPost2010PropOp56
 70
     1
102
RTVSPost2010Prop57
140
1.0
102
RTVSPost2010PropOp57
 70
     1
  0
XRECORD
  5
237
102
{ACAD_REACTORS
330
236
102
}
330
236
100
AcDbXrecord
280
     1
102
RTVSPropertyOp0
 70
     1
102
RTVSPropertyOp1
 70
     1
102
RTVSPropertyOp2
 70
     1
102
RTVSPropertyOp3
 70
     1
102
RTVSPropertyOp4
 70
     1
102
RTVSPropertyOp5
 70
     1
102
RTVSPropertyOp6
 70
     1
102
RTVSPropertyOp7
 70
     1
102
RTVSPropertyOp8
 70
     1
102
RTVSPropertyOp9
 70
     1
102
RTVSPropertyOp10
 70
     1
102
RTVSPropertyOp11
 70
     1
102
RTVSPropertyOp12
 70
     1
102
RTVSPropertyOp13
 70
     1
102
RTVSPropertyOp14
 70
     1
102
RTVSPropertyOp15
 70
     1
102
RTVSPropertyOp16
 70
     1
102
RTVSPropertyOp17
 70
     1
102
RTVSPropertyOp18
 70
     1
102
RTVSPropertyOp19
 70
     1
102
RTVSPropertyOp20
 70
     1
102
RTVSPropertyOp21
 70
     1
102
RTVSPropertyOp22
 70
     1
102
RTVSPropertyOp23
 70
     1
102
RTVSPropertyOp24
 70
     1
102
RTVSPropertyOp25
 70
     1
102
RTVSPropertyOp26
 70
     1
102
RTVSPropertyOp27
 70
     1
102
RTVSPropertyOp28
 70
     1
102
RTVSPropertyOp29
 70
     1
102
RTVSPropertyOp30
 70
     1
102
RTVSPropertyOp31
 70
     1
102
RTVSPropertyOp32
 70
     1
102
RTVSPropertyOp33
 70
     1
102
RTVSPropertyOp34
 70
     1
102
RTVSPropertyOp35
 70
     1
102
RTVSPropertyOp36
 70
     1
102
RTVSPropertyOp37
 70
     1
102
RTVSPropertyOp38
 70
     1
102
RTVSPropertyOp39
 70
     1
102
RTVSPropertyOp40
 70
     1
102
RTVSPropertyOp41
 70
     1
102
RTVSPropertyOp42
 70
     1
102
RTVSPropertyOp43
 70
     1
102
RTVSPropertyOp44
 70
     1
102
RTVSPropertyOp45
 70
     1
102
RTVSPropertyOp46
 70
     1
102
RTVSPropertyOp47
 70
     1
102
RTVSPropertyOp48
 70
     1
102
RTVSPropertyOp49
 70
     1
102
RTVSPropertyOp50
 70
     1
102
RTVSPropertyOp51
 70
     0
102
RTVSPropertyOp52
 70
     0
102
RTVSPropertyOp53
 70
     1
102
RTVSPropertyOp54
 70
     1
102
RTVSPropertyOp55
 70
     1
102
RTVSPropertyOp56
 70
     1
102
RTVSPropertyOp57
 70
     1
102
RTVSPost2010Prop28
280
     0
102
RTVSPost2010PropOp28
 70
     1
102
RTVSPost2010Prop29
280
     1
102
RTVSPost2010PropOp29
 70
     1
102
RTVSPost2010Prop30
280
     1
102
RTVSPost2010PropOp30
 70
     1
102
RTVSPost2010Prop31
280
     0
102
RTVSPost2010PropOp31
 70
     1
102
RTVSPost2010Prop32
280
     0
102
RTVSPost2010PropOp32
 70
     1
102
RTVSPost2010Prop33
280
     0
102
RTVSPost2010PropOp33
 70
     1
102
RTVSPost2010Prop34
280
     0
102
RTVSPost2010PropOp34
 70
     1
102
RTVSPost2010Prop35
280
     0
102
RTVSPost2010PropOp35
 70
     1
102
RTVSPost2010Prop36
280
     0
102
RTVSPost2010PropOp36
 70
     1
102
RTVSPost2010Prop37
 90
       50
102
RTVSPost2010PropOp37
 70
     1
102
RTVSPost2010Prop38
140
0.0
102
RTVSPost2010PropOp38
 70
     1
102
RTVSPost2010Prop39
140
1.0
102
RTVSPost2010PropOp39
 70
     1
102
RTVSPost2010Prop40
 90
        0
102
RTVSPost2010PropOp40
 70
     1
102
RTVSPost2010Prop41ColorIndex
 90
       18
102
RTVSPost2010Prop41ColorRGB
 90
        0
102
RTVSPost2010PropOp41
 70
     1
102
RTVSPost2010Prop42
 90
       50
102
RTVSPost2010PropOp42
 70
     1
102
RTVSPost2010Prop43
 90
        3
102
RTVSPost2010PropOp43
 70
     1
102
RTVSPost2010Prop44ColorIndex
 90
        5
102
RTVSPost2010Prop44ColorRGB
 90
      255
102
RTVSPost2010PropOp44
 70
     1
102
RTVSPost2010Prop45
280
     0
102
RTVSPost2010PropOp45
 70
     1
102
RTVSPost2010Prop46
 90
       50
102
RTVSPost2010PropOp46
 70
     1
102
RTVSPost2010Prop47
 90
       50
102
RTVSPost2010PropOp47
 70
     1
102
RTVSPost2010Prop48
 90
       50
102
RTVSPost2010PropOp48
 70
     1
102
RTVSPost2010Prop49
280
     0
102
RTVSPost2010PropOp49
 70
     1
102
RTVSPost2010Prop50
 90
       50
102
RTVSPost2010PropOp50
 70
     1
102
RTVSPost2010Prop51ColorIndex
 90
      256
102
RTVSPost2010Prop51ColorRGB
 90
-16777216
102
RTVSPost2010PropOp51
 70
     0
102
RTVSPost2010Prop52
140
1.0
102
RTVSPost2010PropOp52
 70
     0
102
RTVSPost2010Prop53
 90
        2
102
RTVSPost2010PropOp53
 70
     1
102
RTVSPost2010Prop54
  1
strokes_ogs.tif
102
RTVSPost2010PropOp54
 70
     1
102
RTVSPost2010Prop55
280
     0
102
RTVSPost2010PropOp55
 70
     1
102
RTVSPost2010Prop56
140
1.0
102
RTVSPost2010PropOp56
 70
     1
102
RTVSPost2010Prop57
140
1.0
102
RTVSPost2010PropOp57
 70
     1
  0
XRECORD
  5
23D
102
{ACAD_REACTORS
330
23C
102
}
330
23C
100
AcDbXrecord
280
     1
102
RTVSPropertyOp0
 70
     1
102
RTVSPropertyOp1
 70
     1
102
RTVSPropertyOp2
 70
     1
102
RTVSPropertyOp3
 70
     1
102
RTVSPropertyOp4
 70
     1
102
RTVSPropertyOp5
 70
     1
102
RTVSPropertyOp6
 70
     1
102
RTVSPropertyOp7
 70
     1
102
RTVSPropertyOp8
 70
     1
102
RTVSPropertyOp9
 70
     1
102
RTVSPropertyOp10
 70
     1
102
RTVSPropertyOp11
 70
     1
102
RTVSPropertyOp12
 70
     1
102
RTVSPropertyOp13
 70
     1
102
RTVSPropertyOp14
 70
     1
102
RTVSPropertyOp15
 70
     1
102
RTVSPropertyOp16
 70
     1
102
RTVSPropertyOp17
 70
     1
102
RTVSPropertyOp18
 70
     1
102
RTVSPropertyOp19
 70
     1
102
RTVSPropertyOp20
 70
     1
102
RTVSPropertyOp21
 70
     1
102
RTVSPropertyOp22
 70
     1
102
RTVSPropertyOp23
 70
     1
102
RTVSPropertyOp24
 70
     1
102
RTVSPropertyOp25
 70
     1
102
RTVSPropertyOp26
 70
     1
102
RTVSPropertyOp27
 70
     1
102
RTVSPropertyOp28
 70
     1
102
RTVSPropertyOp29
 70
     1
102
RTVSPropertyOp30
 70
     1
102
RTVSPropertyOp31
 70
     1
102
RTVSPropertyOp32
 70
     1
102
RTVSPropertyOp33
 70
     1
102
RTVSPropertyOp34
 70
     1
102
RTVSPropertyOp35
 70
     1
102
RTVSPropertyOp36
 70
     1
102
RTVSPropertyOp37
 70
     1
102
RTVSPropertyOp38
 70
     1
102
RTVSPropertyOp39
 70
     1
102
RTVSPropertyOp40
 70
     1
102
RTVSPropertyOp41
 70
     1
102
RTVSPropertyOp42
 70
     1
102
RTVSPropertyOp43
 70
     1
102
RTVSPropertyOp44
 70
     1
102
RTVSPropertyOp45
 70
     1
102
RTVSPropertyOp46
 70
     1
102
RTVSPropertyOp47
 70
     1
102
RTVSPropertyOp48
 70
     1
102
RTVSPropertyOp49
 70
     1
102
RTVSPropertyOp50
 70
     1
102
RTVSPropertyOp51
 70
     0
102
RTVSPropertyOp52
 70
     0
102
RTVSPropertyOp53
 70
     1
102
RTVSPropertyOp54
 70
     1
102
RTVSPropertyOp55
 70
     1
102
RTVSPropertyOp56
 70
     1
102
RTVSPropertyOp57
 70
     1
102
RTVSPost2010Prop28
280
     0
102
RTVSPost2010PropOp28
 70
     1
102
RTVSPost2010Prop29
280
     1
102
RTVSPost2010PropOp29
 70
     1
102
RTVSPost2010Prop30
280
     1
102
RTVSPost2010PropOp30
 70
     1
102
RTVSPost2010Prop31
280
     0
102
RTVSPost2010PropOp31
 70
     1
102
RTVSPost2010Prop32
280
     0
102
RTVSPost2010PropOp32
 70
     1
102
RTVSPost2010Prop33
280
     0
102
RTVSPost2010PropOp33
 70
     1
102
RTVSPost2010Prop34
280
     0
102
RTVSPost2010PropOp34
 70
     1
102
RTVSPost2010Prop35
280
     0
102
RTVSPost2010PropOp35
 70
     1
102
RTVSPost2010Prop36
280
     0
102
RTVSPost2010PropOp36
 70
     1
102
RTVSPost2010Prop37
 90
       50
102
RTVSPost2010PropOp37
 70
     1
102
RTVSPost2010Prop38
140
0.0
102
RTVSPost2010PropOp38
 70
     1
102
RTVSPost2010Prop39
140
1.0
102
RTVSPost2010PropOp39
 70
     1
102
RTVSPost2010Prop40
 90
        0
102
RTVSPost2010PropOp40
 70
     1
102
RTVSPost2010Prop41ColorIndex
 90
       18
102
RTVSPost2010Prop41ColorRGB
 90
        0
102
RTVSPost2010PropOp41
 70
     1
102
RTVSPost2010Prop42
 90
       50
102
RTVSPost2010PropOp42
 70
     1
102
RTVSPost2010Prop43
 90
        3
102
RTVSPost2010PropOp43
 70
     1
102
RTVSPost2010Prop44ColorIndex
 90
        5
102
RTVSPost2010Prop44ColorRGB
 90
      255
102
RTVSPost2010PropOp44
 70
     1
102
RTVSPost2010Prop45
280
     0
102
RTVSPost2010PropOp45
 70
     1
102
RTVSPost2010Prop46
 90
       50
102
RTVSPost2010PropOp46
 70
     1
102
RTVSPost2010Prop47
 90
       50
102
RTVSPost2010PropOp47
 70
     1
102
RTVSPost2010Prop48
 90
       50
102
RTVSPost2010PropOp48
 70
     1
102
RTVSPost2010Prop49
280
     0
102
RTVSPost2010PropOp49
 70
     1
102
RTVSPost2010Prop50
 90
       50
102
RTVSPost2010PropOp50
 70
     1
102
RTVSPost2010Prop51ColorIndex
 90
      256
102
RTVSPost2010Prop51ColorRGB
 90
-16777216
102
RTVSPost2010PropOp51
 70
     0
102
RTVSPost2010Prop52
140
1.0
102
RTVSPost2010PropOp52
 70
     0
102
RTVSPost2010Prop53
 90
        2
102
RTVSPost2010PropOp53
 70
     1
102
RTVSPost2010Prop54
  1
strokes_ogs.tif
102
RTVSPost2010PropOp54
 70
     1
102
RTVSPost2010Prop55
280
     0
102
RTVSPost2010PropOp55
 70
     1
102
RTVSPost2010Prop56
140
1.0
102
RTVSPost2010PropOp56
 70
     1
102
RTVSPost2010Prop57
140
1.0
102
RTVSPost2010PropOp57
 70
     1
  0
XRECORD
  5
251
102
{ACAD_REACTORS
330
250
102
}
330
250
100
AcDbXrecord
280
     1
102
RTVSPropertyOp0
 70
     0
102
RTVSPropertyOp1
 70
     0
102
RTVSPropertyOp2
 70
     0
102
RTVSPropertyOp3
 70
     0
102
RTVSPropertyOp4
 70
     0
102
RTVSPropertyOp5
 70
     0
102
RTVSPropertyOp6
 70
     0
102
RTVSPropertyOp7
 70
     0
102
RTVSPropertyOp8
 70
     0
102
RTVSPropertyOp9
 70
     0
102
RTVSPropertyOp10
 70
     0
102
RTVSPropertyOp11
 70
     0
102
RTVSPropertyOp12
 70
     0
102
RTVSPropertyOp13
 70
     0
102
RTVSPropertyOp14
 70
     2
102
RTVSPropertyOp15
 70
     0
102
RTVSPropertyOp16
 70
     0
102
RTVSPropertyOp17
 70
     0
102
RTVSPropertyOp18
 70
     0
102
RTVSPropertyOp19
 70
     0
102
RTVSPropertyOp20
 70
     0
102
RTVSPropertyOp21
 70
     0
102
RTVSPropertyOp22
 70
     0
102
RTVSPropertyOp23
 70
     0
102
RTVSPropertyOp24
 70
     0
102
RTVSPropertyOp25
 70
     0
102
RTVSPropertyOp26
 70
     0
102
RTVSPropertyOp27
 70
     0
102
RTVSPropertyOp28
 70
     0
102
RTVSPropertyOp29
 70
     0
102
RTVSPropertyOp30
 70
     0
102
RTVSPropertyOp31
 70
     0
102
RTVSPropertyOp32
 70
     0
102
RTVSPropertyOp33
 70
     0
102
RTVSPropertyOp34
 70
     0
102
RTVSPropertyOp35
 70
     0
102
RTVSPropertyOp36
 70
     0
102
RTVSPropertyOp37
 70
     0
102
RTVSPropertyOp38
 70
     0
102
RTVSPropertyOp39
 70
     0
102
RTVSPropertyOp40
 70
     0
102
RTVSPropertyOp41
 70
     0
102
RTVSPropertyOp42
 70
     0
102
RTVSPropertyOp43
 70
     0
102
RTVSPropertyOp44
 70
     0
102
RTVSPropertyOp45
 70
     0
102
RTVSPropertyOp46
 70
     0
102
RTVSPropertyOp47
 70
     0
102
RTVSPropertyOp48
 70
     0
102
RTVSPropertyOp49
 70
     0
102
RTVSPropertyOp50
 70
     0
102
RTVSPropertyOp51
 70
     0
102
RTVSPropertyOp52
 70
     0
102
RTVSPropertyOp53
 70
     0
102
RTVSPropertyOp54
 70
     0
102
RTVSPropertyOp55
 70
     0
102
RTVSPropertyOp56
 70
     0
102
RTVSPropertyOp57
 70
     0
102
RTVSPost2010Prop28
280
     0
102
RTVSPost2010PropOp28
 70
     0
102
RTVSPost2010Prop29
280
     1
102
RTVSPost2010PropOp29
 70
     0
102
RTVSPost2010Prop30
280
     1
102
RTVSPost2010PropOp30
 70
     0
102
RTVSPost2010Prop31
280
     0
102
RTVSPost2010PropOp31
 70
     0
102
RTVSPost2010Prop32
280
     0
102
RTVSPost2010PropOp32
 70
     0
102
RTVSPost2010Prop33
280
     0
102
RTVSPost2010PropOp33
 70
     0
102
RTVSPost2010Prop34
280
     0
102
RTVSPost2010PropOp34
 70
     0
102
RTVSPost2010Prop35
280
     0
102
RTVSPost2010PropOp35
 70
     0
102
RTVSPost2010Prop36
280
     0
102
RTVSPost2010PropOp36
 70
     0
102
RTVSPost2010Prop37
 90
       50
102
RTVSPost2010PropOp37
 70
     0
102
RTVSPost2010Prop38
140
0.0
102
RTVSPost2010PropOp38
 70
     0
102
RTVSPost2010Prop39
140
1.0
102
RTVSPost2010PropOp39
 70
     0
102
RTVSPost2010Prop40
 90
        0
102
RTVSPost2010PropOp40
 70
     0
102
RTVSPost2010Prop41ColorIndex
 90
       18
102
RTVSPost2010Prop41ColorRGB
 90
        0
102
RTVSPost2010PropOp41
 70
     0
102
RTVSPost2010Prop42
 90
       50
102
RTVSPost2010PropOp42
 70
     0
102
RTVSPost2010Prop43
 90
        3
102
RTVSPost2010PropOp43
 70
     0
102
RTVSPost2010Prop44ColorIndex
 90
        5
102
RTVSPost2010Prop44ColorRGB
 90
      255
102
RTVSPost2010PropOp44
 70
     0
102
RTVSPost2010Prop45
280
     0
102
RTVSPost2010PropOp45
 70
     0
102
RTVSPost2010Prop46
 90
       50
102
RTVSPost2010PropOp46
 70
     0
102
RTVSPost2010Prop47
 90
       50
102
RTVSPost2010PropOp47
 70
     0
102
RTVSPost2010Prop48
 90
       50
102
RTVSPost2010PropOp48
 70
     0
102
RTVSPost2010Prop49
280
     0
102
RTVSPost2010PropOp49
 70
     0
102
RTVSPost2010Prop50
 90
       50
102
RTVSPost2010PropOp50
 70
     0
102
RTVSPost2010Prop51ColorIndex
 90
      256
102
RTVSPost2010Prop51ColorRGB
 90
-16777216
102
RTVSPost2010PropOp51
 70
     0
102
RTVSPost2010Prop52
140
1.0
102
RTVSPost2010PropOp52
 70
     0
102
RTVSPost2010Prop53
 90
        2
102
RTVSPost2010PropOp53
 70
     0
102
RTVSPost2010Prop54
  1
strokes_ogs.tif
102
RTVSPost2010PropOp54
 70
     0
102
RTVSPost2010Prop55
280
     0
102
RTVSPost2010PropOp55
 70
     0
102
RTVSPost2010Prop56
140
1.0
102
RTVSPost2010PropOp56
 70
     0
102
RTVSPost2010Prop57
140
1.0
102
RTVSPost2010PropOp57
 70
     0
  0
XRECORD
  5
24B
102
{ACAD_REACTORS
330
24A
102
}
330
24A
100
AcDbXrecord
280
     1
102
RTVSPropertyOp0
 70
     1
102
RTVSPropertyOp1
 70
     1
102
RTVSPropertyOp2
 70
     1
102
RTVSPropertyOp3
 70
     1
102
RTVSPropertyOp4
 70
     1
102
RTVSPropertyOp5
 70
     1
102
RTVSPropertyOp6
 70
     1
102
RTVSPropertyOp7
 70
     1
102
RTVSPropertyOp8
 70
     1
102
RTVSPropertyOp9
 70
     1
102
RTVSPropertyOp10
 70
     1
102
RTVSPropertyOp11
 70
     1
102
RTVSPropertyOp12
 70
     1
102
RTVSPropertyOp13
 70
     1
102
RTVSPropertyOp14
 70
     1
102
RTVSPropertyOp15
 70
     1
102
RTVSPropertyOp16
 70
     1
102
RTVSPropertyOp17
 70
     1
102
RTVSPropertyOp18
 70
     1
102
RTVSPropertyOp19
 70
     1
102
RTVSPropertyOp20
 70
     1
102
RTVSPropertyOp21
 70
     1
102
RTVSPropertyOp22
 70
     1
102
RTVSPropertyOp23
 70
     1
102
RTVSPropertyOp24
 70
     1
102
RTVSPropertyOp25
 70
     1
102
RTVSPropertyOp26
 70
     1
102
RTVSPropertyOp27
 70
     1
102
RTVSPropertyOp28
 70
     1
102
RTVSPropertyOp29
 70
     1
102
RTVSPropertyOp30
 70
     1
102
RTVSPropertyOp31
 70
     1
102
RTVSPropertyOp32
 70
     1
102
RTVSPropertyOp33
 70
     1
102
RTVSPropertyOp34
 70
     1
102
RTVSPropertyOp35
 70
     1
102
RTVSPropertyOp36
 70
     1
102
RTVSPropertyOp37
 70
     1
102
RTVSPropertyOp38
 70
     1
102
RTVSPropertyOp39
 70
     1
102
RTVSPropertyOp40
 70
     1
102
RTVSPropertyOp41
 70
     1
102
RTVSPropertyOp42
 70
     1
102
RTVSPropertyOp43
 70
     1
102
RTVSPropertyOp44
 70
     1
102
RTVSPropertyOp45
 70
     1
102
RTVSPropertyOp46
 70
     1
102
RTVSPropertyOp47
 70
     1
102
RTVSPropertyOp48
 70
     1
102
RTVSPropertyOp49
 70
     1
102
RTVSPropertyOp50
 70
     1
102
RTVSPropertyOp51
 70
     0
102
RTVSPropertyOp52
 70
     0
102
RTVSPropertyOp53
 70
     1
102
RTVSPropertyOp54
 70
     1
102
RTVSPropertyOp55
 70
     1
102
RTVSPropertyOp56
 70
     1
102
RTVSPropertyOp57
 70
     1
102
RTVSPost2010Prop28
280
     0
102
RTVSPost2010PropOp28
 70
     1
102
RTVSPost2010Prop29
280
     1
102
RTVSPost2010PropOp29
 70
     1
102
RTVSPost2010Prop30
280
     1
102
RTVSPost2010PropOp30
 70
     1
102
RTVSPost2010Prop31
280
     0
102
RTVSPost2010PropOp31
 70
     1
102
RTVSPost2010Prop32
280
     0
102
RTVSPost2010PropOp32
 70
     1
102
RTVSPost2010Prop33
280
     0
102
RTVSPost2010PropOp33
 70
     1
102
RTVSPost2010Prop34
280
     0
102
RTVSPost2010PropOp34
 70
     1
102
RTVSPost2010Prop35
280
     0
102
RTVSPost2010PropOp35
 70
     1
102
RTVSPost2010Prop36
280
     0
102
RTVSPost2010PropOp36
 70
     1
102
RTVSPost2010Prop37
 90
       50
102
RTVSPost2010PropOp37
 70
     1
102
RTVSPost2010Prop38
140
0.0
102
RTVSPost2010PropOp38
 70
     1
102
RTVSPost2010Prop39
140
1.0
102
RTVSPost2010PropOp39
 70
     1
102
RTVSPost2010Prop40
 90
        0
102
RTVSPost2010PropOp40
 70
     1
102
RTVSPost2010Prop41ColorIndex
 90
       18
102
RTVSPost2010Prop41ColorRGB
 90
        0
102
RTVSPost2010PropOp41
 70
     1
102
RTVSPost2010Prop42
 90
       50
102
RTVSPost2010PropOp42
 70
     1
102
RTVSPost2010Prop43
 90
        3
102
RTVSPost2010PropOp43
 70
     1
102
RTVSPost2010Prop44ColorIndex
 90
        5
102
RTVSPost2010Prop44ColorRGB
 90
      255
102
RTVSPost2010PropOp44
 70
     1
102
RTVSPost2010Prop45
280
     0
102
RTVSPost2010PropOp45
 70
     1
102
RTVSPost2010Prop46
 90
       50
102
RTVSPost2010PropOp46
 70
     1
102
RTVSPost2010Prop47
 90
       50
102
RTVSPost2010PropOp47
 70
     1
102
RTVSPost2010Prop48
 90
       50
102
RTVSPost2010PropOp48
 70
     1
102
RTVSPost2010Prop49
280
     0
102
RTVSPost2010PropOp49
 70
     1
102
RTVSPost2010Prop50
 90
       50
102
RTVSPost2010PropOp50
 70
     1
102
RTVSPost2010Prop51ColorIndex
 90
      256
102
RTVSPost2010Prop51ColorRGB
 90
-16777216
102
RTVSPost2010PropOp51
 70
     0
102
RTVSPost2010Prop52
140
1.0
102
RTVSPost2010PropOp52
 70
     0
102
RTVSPost2010Prop53
 90
        2
102
RTVSPost2010PropOp53
 70
     1
102
RTVSPost2010Prop54
  1
strokes_ogs.tif
102
RTVSPost2010PropOp54
 70
     1
102
RTVSPost2010Prop55
280
     0
102
RTVSPost2010PropOp55
 70
     1
102
RTVSPost2010Prop56
140
1.0
102
RTVSPost2010PropOp56
 70
     1
102
RTVSPost2010Prop57
140
1.0
102
RTVSPost2010PropOp57
 70
     1
  0
XRECORD
  5
253
102
{ACAD_REACTORS
330
252
102
}
330
252
100
AcDbXrecord
280
     1
102
RTVSPropertyOp0
 70
     0
102
RTVSPropertyOp1
 70
     0
102
RTVSPropertyOp2
 70
     0
102
RTVSPropertyOp3
 70
     0
102
RTVSPropertyOp4
 70
     0
102
RTVSPropertyOp5
 70
     0
102
RTVSPropertyOp6
 70
     0
102
RTVSPropertyOp7
 70
     0
102
RTVSPropertyOp8
 70
     0
102
RTVSPropertyOp9
 70
     0
102
RTVSPropertyOp10
 70
     0
102
RTVSPropertyOp11
 70
     0
102
RTVSPropertyOp12
 70
     0
102
RTVSPropertyOp13
 70
     0
102
RTVSPropertyOp14
 70
     2
102
RTVSPropertyOp15
 70
     0
102
RTVSPropertyOp16
 70
     0
102
RTVSPropertyOp17
 70
     0
102
RTVSPropertyOp18
 70
     0
102
RTVSPropertyOp19
 70
     0
102
RTVSPropertyOp20
 70
     0
102
RTVSPropertyOp21
 70
     0
102
RTVSPropertyOp22
 70
     0
102
RTVSPropertyOp23
 70
     0
102
RTVSPropertyOp24
 70
     0
102
RTVSPropertyOp25
 70
     0
102
RTVSPropertyOp26
 70
     0
102
RTVSPropertyOp27
 70
     0
102
RTVSPropertyOp28
 70
     0
102
RTVSPropertyOp29
 70
     0
102
RTVSPropertyOp30
 70
     0
102
RTVSPropertyOp31
 70
     0
102
RTVSPropertyOp32
 70
     0
102
RTVSPropertyOp33
 70
     0
102
RTVSPropertyOp34
 70
     0
102
RTVSPropertyOp35
 70
     0
102
RTVSPropertyOp36
 70
     0
102
RTVSPropertyOp37
 70
     0
102
RTVSPropertyOp38
 70
     0
102
RTVSPropertyOp39
 70
     0
102
RTVSPropertyOp40
 70
     0
102
RTVSPropertyOp41
 70
     0
102
RTVSPropertyOp42
 70
     0
102
RTVSPropertyOp43
 70
     0
102
RTVSPropertyOp44
 70
     0
102
RTVSPropertyOp45
 70
     0
102
RTVSPropertyOp46
 70
     0
102
RTVSPropertyOp47
 70
     0
102
RTVSPropertyOp48
 70
     0
102
RTVSPropertyOp49
 70
     0
102
RTVSPropertyOp50
 70
     0
102
RTVSPropertyOp51
 70
     0
102
RTVSPropertyOp52
 70
     0
102
RTVSPropertyOp53
 70
     0
102
RTVSPropertyOp54
 70
     0
102
RTVSPropertyOp55
 70
     0
102
RTVSPropertyOp56
 70
     0
102
RTVSPropertyOp57
 70
     0
102
RTVSPost2010Prop28
280
     0
102
RTVSPost2010PropOp28
 70
     0
102
RTVSPost2010Prop29
280
     1
102
RTVSPost2010PropOp29
 70
     0
102
RTVSPost2010Prop30
280
     1
102
RTVSPost2010PropOp30
 70
     0
102
RTVSPost2010Prop31
280
     0
102
RTVSPost2010PropOp31
 70
     0
102
RTVSPost2010Prop32
280
     0
102
RTVSPost2010PropOp32
 70
     0
102
RTVSPost2010Prop33
280
     0
102
RTVSPost2010PropOp33
 70
     0
102
RTVSPost2010Prop34
280
     0
102
RTVSPost2010PropOp34
 70
     0
102
RTVSPost2010Prop35
280
     0
102
RTVSPost2010PropOp35
 70
     0
102
RTVSPost2010Prop36
280
     0
102
RTVSPost2010PropOp36
 70
     0
102
RTVSPost2010Prop37
 90
       50
102
RTVSPost2010PropOp37
 70
     0
102
RTVSPost2010Prop38
140
0.0
102
RTVSPost2010PropOp38
 70
     0
102
RTVSPost2010Prop39
140
1.0
102
RTVSPost2010PropOp39
 70
     0
102
RTVSPost2010Prop40
 90
        0
102
RTVSPost2010PropOp40
 70
     0
102
RTVSPost2010Prop41ColorIndex
 90
       18
102
RTVSPost2010Prop41ColorRGB
 90
        0
102
RTVSPost2010PropOp41
 70
     0
102
RTVSPost2010Prop42
 90
       50
102
RTVSPost2010PropOp42
 70
     0
102
RTVSPost2010Prop43
 90
        3
102
RTVSPost2010PropOp43
 70
     0
102
RTVSPost2010Prop44ColorIndex
 90
        5
102
RTVSPost2010Prop44ColorRGB
 90
      255
102
RTVSPost2010PropOp44
 70
     0
102
RTVSPost2010Prop45
280
     0
102
RTVSPost2010PropOp45
 70
     0
102
RTVSPost2010Prop46
 90
       50
102
RTVSPost2010PropOp46
 70
     0
102
RTVSPost2010Prop47
 90
       50
102
RTVSPost2010PropOp47
 70
     0
102
RTVSPost2010Prop48
 90
       50
102
RTVSPost2010PropOp48
 70
     0
102
RTVSPost2010Prop49
280
     0
102
RTVSPost2010PropOp49
 70
     0
102
RTVSPost2010Prop50
 90
       50
102
RTVSPost2010PropOp50
 70
     0
102
RTVSPost2010Prop51ColorIndex
 90
      256
102
RTVSPost2010Prop51ColorRGB
 90
-16777216
102
RTVSPost2010PropOp51
 70
     0
102
RTVSPost2010Prop52
140
1.0
102
RTVSPost2010PropOp52
 70
     0
102
RTVSPost2010Prop53
 90
        2
102
RTVSPost2010PropOp53
 70
     0
102
RTVSPost2010Prop54
  1
strokes_ogs.tif
102
RTVSPost2010PropOp54
 70
     0
102
RTVSPost2010Prop55
280
     0
102
RTVSPost2010PropOp55
 70
     0
102
RTVSPost2010Prop56
140
1.0
102
RTVSPost2010PropOp56
 70
     0
102
RTVSPost2010Prop57
140
1.0
102
RTVSPost2010PropOp57
 70
     0
  0
XRECORD
  5
241
102
{ACAD_REACTORS
330
240
102
}
330
240
100
AcDbXrecord
280
     1
102
RTVSPropertyOp0
 70
     1
102
RTVSPropertyOp1
 70
     1
102
RTVSPropertyOp2
 70
     1
102
RTVSPropertyOp3
 70
     1
102
RTVSPropertyOp4
 70
     1
102
RTVSPropertyOp5
 70
     1
102
RTVSPropertyOp6
 70
     1
102
RTVSPropertyOp7
 70
     1
102
RTVSPropertyOp8
 70
     1
102
RTVSPropertyOp9
 70
     1
102
RTVSPropertyOp10
 70
     1
102
RTVSPropertyOp11
 70
     1
102
RTVSPropertyOp12
 70
     1
102
RTVSPropertyOp13
 70
     1
102
RTVSPropertyOp14
 70
     1
102
RTVSPropertyOp15
 70
     1
102
RTVSPropertyOp16
 70
     1
102
RTVSPropertyOp17
 70
     1
102
RTVSPropertyOp18
 70
     1
102
RTVSPropertyOp19
 70
     1
102
RTVSPropertyOp20
 70
     1
102
RTVSPropertyOp21
 70
     1
102
RTVSPropertyOp22
 70
     1
102
RTVSPropertyOp23
 70
     1
102
RTVSPropertyOp24
 70
     1
102
RTVSPropertyOp25
 70
     1
102
RTVSPropertyOp26
 70
     1
102
RTVSPropertyOp27
 70
     1
102
RTVSPropertyOp28
 70
     1
102
RTVSPropertyOp29
 70
     1
102
RTVSPropertyOp30
 70
     1
102
RTVSPropertyOp31
 70
     1
102
RTVSPropertyOp32
 70
     1
102
RTVSPropertyOp33
 70
     1
102
RTVSPropertyOp34
 70
     1
102
RTVSPropertyOp35
 70
     1
102
RTVSPropertyOp36
 70
     1
102
RTVSPropertyOp37
 70
     1
102
RTVSPropertyOp38
 70
     1
102
RTVSPropertyOp39
 70
     1
102
RTVSPropertyOp40
 70
     1
102
RTVSPropertyOp41
 70
     1
102
RTVSPropertyOp42
 70
     1
102
RTVSPropertyOp43
 70
     1
102
RTVSPropertyOp44
 70
     1
102
RTVSPropertyOp45
 70
     1
102
RTVSPropertyOp46
 70
     1
102
RTVSPropertyOp47
 70
     1
102
RTVSPropertyOp48
 70
     1
102
RTVSPropertyOp49
 70
     1
102
RTVSPropertyOp50
 70
     1
102
RTVSPropertyOp51
 70
     0
102
RTVSPropertyOp52
 70
     0
102
RTVSPropertyOp53
 70
     1
102
RTVSPropertyOp54
 70
     1
102
RTVSPropertyOp55
 70
     1
102
RTVSPropertyOp56
 70
     1
102
RTVSPropertyOp57
 70
     1
102
RTVSPost2010Prop28
280
     0
102
RTVSPost2010PropOp28
 70
     1
102
RTVSPost2010Prop29
280
     1
102
RTVSPost2010PropOp29
 70
     1
102
RTVSPost2010Prop30
280
     1
102
RTVSPost2010PropOp30
 70
     1
102
RTVSPost2010Prop31
280
     0
102
RTVSPost2010PropOp31
 70
     1
102
RTVSPost2010Prop32
280
     0
102
RTVSPost2010PropOp32
 70
     1
102
RTVSPost2010Prop33
280
     0
102
RTVSPost2010PropOp33
 70
     1
102
RTVSPost2010Prop34
280
     0
102
RTVSPost2010PropOp34
 70
     1
102
RTVSPost2010Prop35
280
     0
102
RTVSPost2010PropOp35
 70
     1
102
RTVSPost2010Prop36
280
     0
102
RTVSPost2010PropOp36
 70
     1
102
RTVSPost2010Prop37
 90
       50
102
RTVSPost2010PropOp37
 70
     1
102
RTVSPost2010Prop38
140
0.0
102
RTVSPost2010PropOp38
 70
     1
102
RTVSPost2010Prop39
140
1.0
102
RTVSPost2010PropOp39
 70
     1
102
RTVSPost2010Prop40
 90
        0
102
RTVSPost2010PropOp40
 70
     1
102
RTVSPost2010Prop41ColorIndex
 90
       18
102
RTVSPost2010Prop41ColorRGB
 90
        0
102
RTVSPost2010PropOp41
 70
     1
102
RTVSPost2010Prop42
 90
       50
102
RTVSPost2010PropOp42
 70
     1
102
RTVSPost2010Prop43
 90
        3
102
RTVSPost2010PropOp43
 70
     1
102
RTVSPost2010Prop44ColorIndex
 90
        5
102
RTVSPost2010Prop44ColorRGB
 90
      255
102
RTVSPost2010PropOp44
 70
     1
102
RTVSPost2010Prop45
280
     0
102
RTVSPost2010PropOp45
 70
     1
102
RTVSPost2010Prop46
 90
       50
102
RTVSPost2010PropOp46
 70
     1
102
RTVSPost2010Prop47
 90
       50
102
RTVSPost2010PropOp47
 70
     1
102
RTVSPost2010Prop48
 90
       50
102
RTVSPost2010PropOp48
 70
     1
102
RTVSPost2010Prop49
280
     0
102
RTVSPost2010PropOp49
 70
     1
102
RTVSPost2010Prop50
 90
       50
102
RTVSPost2010PropOp50
 70
     1
102
RTVSPost2010Prop51ColorIndex
 90
      256
102
RTVSPost2010Prop51ColorRGB
 90
-16777216
102
RTVSPost2010PropOp51
 70
     0
102
RTVSPost2010Prop52
140
1.0
102
RTVSPost2010PropOp52
 70
     0
102
RTVSPost2010Prop53
 90
        2
102
RTVSPost2010PropOp53
 70
     1
102
RTVSPost2010Prop54
  1
strokes_ogs.tif
102
RTVSPost2010PropOp54
 70
     1
102
RTVSPost2010Prop55
280
     0
102
RTVSPost2010PropOp55
 70
     1
102
RTVSPost2010Prop56
140
1.0
102
RTVSPost2010PropOp56
 70
     1
102
RTVSPost2010Prop57
140
1.0
102
RTVSPost2010PropOp57
 70
     1
  0
XRECORD
  5
25F
102
{ACAD_REACTORS
330
25E
102
}
330
25E
100
AcDbXrecord
280
     1
102
RTVSPropertyOp0
 70
     1
102
RTVSPropertyOp1
 70
     1
102
RTVSPropertyOp2
 70
     1
102
RTVSPropertyOp3
 70
     1
102
RTVSPropertyOp4
 70
     1
102
RTVSPropertyOp5
 70
     1
102
RTVSPropertyOp6
 70
     1
102
RTVSPropertyOp7
 70
     1
102
RTVSPropertyOp8
 70
     1
102
RTVSPropertyOp9
 70
     1
102
RTVSPropertyOp10
 70
     1
102
RTVSPropertyOp11
 70
     1
102
RTVSPropertyOp12
 70
     1
102
RTVSPropertyOp13
 70
     1
102
RTVSPropertyOp14
 70
     1
102
RTVSPropertyOp15
 70
     1
102
RTVSPropertyOp16
 70
     1
102
RTVSPropertyOp17
 70
     1
102
RTVSPropertyOp18
 70
     1
102
RTVSPropertyOp19
 70
     1
102
RTVSPropertyOp20
 70
     1
102
RTVSPropertyOp21
 70
     1
102
RTVSPropertyOp22
 70
     1
102
RTVSPropertyOp23
 70
     1
102
RTVSPropertyOp24
 70
     1
102
RTVSPropertyOp25
 70
     1
102
RTVSPropertyOp26
 70
     1
102
RTVSPropertyOp27
 70
     1
102
RTVSPropertyOp28
 70
     1
102
RTVSPropertyOp29
 70
     1
102
RTVSPropertyOp30
 70
     1
102
RTVSPropertyOp31
 70
     1
102
RTVSPropertyOp32
 70
     1
102
RTVSPropertyOp33
 70
     1
102
RTVSPropertyOp34
 70
     1
102
RTVSPropertyOp35
 70
     1
102
RTVSPropertyOp36
 70
     1
102
RTVSPropertyOp37
 70
     1
102
RTVSPropertyOp38
 70
     1
102
RTVSPropertyOp39
 70
     1
102
RTVSPropertyOp40
 70
     1
102
RTVSPropertyOp41
 70
     1
102
RTVSPropertyOp42
 70
     1
102
RTVSPropertyOp43
 70
     1
102
RTVSPropertyOp44
 70
     1
102
RTVSPropertyOp45
 70
     1
102
RTVSPropertyOp46
 70
     1
102
RTVSPropertyOp47
 70
     1
102
RTVSPropertyOp48
 70
     1
102
RTVSPropertyOp49
 70
     1
102
RTVSPropertyOp50
 70
     1
102
RTVSPropertyOp51
 70
     0
102
RTVSPropertyOp52
 70
     0
102
RTVSPropertyOp53
 70
     1
102
RTVSPropertyOp54
 70
     1
102
RTVSPropertyOp55
 70
     1
102
RTVSPropertyOp56
 70
     1
102
RTVSPropertyOp57
 70
     1
102
RTVSPost2010Prop28
280
     0
102
RTVSPost2010PropOp28
 70
     1
102
RTVSPost2010Prop29
280
     1
102
RTVSPost2010PropOp29
 70
     1
102
RTVSPost2010Prop30
280
     1
102
RTVSPost2010PropOp30
 70
     1
102
RTVSPost2010Prop31
280
     0
102
RTVSPost2010PropOp31
 70
     1
102
RTVSPost2010Prop32
280
     0
102
RTVSPost2010PropOp32
 70
     1
102
RTVSPost2010Prop33
280
     0
102
RTVSPost2010PropOp33
 70
     1
102
RTVSPost2010Prop34
280
     0
102
RTVSPost2010PropOp34
 70
     1
102
RTVSPost2010Prop35
280
     0
102
RTVSPost2010PropOp35
 70
     1
102
RTVSPost2010Prop36
280
     0
102
RTVSPost2010PropOp36
 70
     1
102
RTVSPost2010Prop37
 90
       50
102
RTVSPost2010PropOp37
 70
     1
102
RTVSPost2010Prop38
140
0.0
102
RTVSPost2010PropOp38
 70
     1
102
RTVSPost2010Prop39
140
1.0
102
RTVSPost2010PropOp39
 70
     1
102
RTVSPost2010Prop40
 90
        0
102
RTVSPost2010PropOp40
 70
     1
102
RTVSPost2010Prop41ColorIndex
 90
       18
102
RTVSPost2010Prop41ColorRGB
 90
        0
102
RTVSPost2010PropOp41
 70
     1
102
RTVSPost2010Prop42
 90
       50
102
RTVSPost2010PropOp42
 70
     1
102
RTVSPost2010Prop43
 90
        3
102
RTVSPost2010PropOp43
 70
     1
102
RTVSPost2010Prop44ColorIndex
 90
        5
102
RTVSPost2010Prop44ColorRGB
 90
      255
102
RTVSPost2010PropOp44
 70
     1
102
RTVSPost2010Prop45
280
     0
102
RTVSPost2010PropOp45
 70
     1
102
RTVSPost2010Prop46
 90
       50
102
RTVSPost2010PropOp46
 70
     1
102
RTVSPost2010Prop47
 90
       50
102
RTVSPost2010PropOp47
 70
     1
102
RTVSPost2010Prop48
 90
       50
102
RTVSPost2010PropOp48
 70
     1
102
RTVSPost2010Prop49
280
     0
102
RTVSPost2010PropOp49
 70
     1
102
RTVSPost2010Prop50
 90
       50
102
RTVSPost2010PropOp50
 70
     1
102
RTVSPost2010Prop51ColorIndex
 90
      256
102
RTVSPost2010Prop51ColorRGB
 90
-16777216
102
RTVSPost2010PropOp51
 70
     0
102
RTVSPost2010Prop52
140
1.0
102
RTVSPost2010PropOp52
 70
     0
102
RTVSPost2010Prop53
 90
        2
102
RTVSPost2010PropOp53
 70
     1
102
RTVSPost2010Prop54
  1
strokes_ogs.tif
102
RTVSPost2010PropOp54
 70
     1
102
RTVSPost2010Prop55
280
     0
102
RTVSPost2010PropOp55
 70
     1
102
RTVSPost2010Prop56
140
1.0
102
RTVSPost2010PropOp56
 70
     1
102
RTVSPost2010Prop57
140
1.0
102
RTVSPost2010PropOp57
 70
     1
  0
XRECORD
  5
25D
102
{ACAD_REACTORS
330
25C
102
}
330
25C
100
AcDbXrecord
280
     1
102
RTVSPropertyOp0
 70
     1
102
RTVSPropertyOp1
 70
     1
102
RTVSPropertyOp2
 70
     1
102
RTVSPropertyOp3
 70
     1
102
RTVSPropertyOp4
 70
     1
102
RTVSPropertyOp5
 70
     1
102
RTVSPropertyOp6
 70
     1
102
RTVSPropertyOp7
 70
     1
102
RTVSPropertyOp8
 70
     1
102
RTVSPropertyOp9
 70
     1
102
RTVSPropertyOp10
 70
     1
102
RTVSPropertyOp11
 70
     1
102
RTVSPropertyOp12
 70
     1
102
RTVSPropertyOp13
 70
     1
102
RTVSPropertyOp14
 70
     1
102
RTVSPropertyOp15
 70
     1
102
RTVSPropertyOp16
 70
     1
102
RTVSPropertyOp17
 70
     1
102
RTVSPropertyOp18
 70
     1
102
RTVSPropertyOp19
 70
     1
102
RTVSPropertyOp20
 70
     1
102
RTVSPropertyOp21
 70
     1
102
RTVSPropertyOp22
 70
     1
102
RTVSPropertyOp23
 70
     1
102
RTVSPropertyOp24
 70
     1
102
RTVSPropertyOp25
 70
     1
102
RTVSPropertyOp26
 70
     1
102
RTVSPropertyOp27
 70
     1
102
RTVSPropertyOp28
 70
     1
102
RTVSPropertyOp29
 70
     1
102
RTVSPropertyOp30
 70
     1
102
RTVSPropertyOp31
 70
     1
102
RTVSPropertyOp32
 70
     1
102
RTVSPropertyOp33
 70
     1
102
RTVSPropertyOp34
 70
     1
102
RTVSPropertyOp35
 70
     1
102
RTVSPropertyOp36
 70
     1
102
RTVSPropertyOp37
 70
     1
102
RTVSPropertyOp38
 70
     1
102
RTVSPropertyOp39
 70
     1
102
RTVSPropertyOp40
 70
     1
102
RTVSPropertyOp41
 70
     1
102
RTVSPropertyOp42
 70
     1
102
RTVSPropertyOp43
 70
     1
102
RTVSPropertyOp44
 70
     1
102
RTVSPropertyOp45
 70
     1
102
RTVSPropertyOp46
 70
     1
102
RTVSPropertyOp47
 70
     1
102
RTVSPropertyOp48
 70
     1
102
RTVSPropertyOp49
 70
     1
102
RTVSPropertyOp50
 70
     1
102
RTVSPropertyOp51
 70
     0
102
RTVSPropertyOp52
 70
     0
102
RTVSPropertyOp53
 70
     1
102
RTVSPropertyOp54
 70
     1
102
RTVSPropertyOp55
 70
     1
102
RTVSPropertyOp56
 70
     1
102
RTVSPropertyOp57
 70
     1
102
RTVSPost2010Prop28
280
     0
102
RTVSPost2010PropOp28
 70
     1
102
RTVSPost2010Prop29
280
     1
102
RTVSPost2010PropOp29
 70
     1
102
RTVSPost2010Prop30
280
     1
102
RTVSPost2010PropOp30
 70
     1
102
RTVSPost2010Prop31
280
     0
102
RTVSPost2010PropOp31
 70
     1
102
RTVSPost2010Prop32
280
     0
102
RTVSPost2010PropOp32
 70
     1
102
RTVSPost2010Prop33
280
     0
102
RTVSPost2010PropOp33
 70
     1
102
RTVSPost2010Prop34
280
     0
102
RTVSPost2010PropOp34
 70
     1
102
RTVSPost2010Prop35
280
     0
102
RTVSPost2010PropOp35
 70
     1
102
RTVSPost2010Prop36
280
     0
102
RTVSPost2010PropOp36
 70
     1
102
RTVSPost2010Prop37
 90
       50
102
RTVSPost2010PropOp37
 70
     1
102
RTVSPost2010Prop38
140
0.0
102
RTVSPost2010PropOp38
 70
     1
102
RTVSPost2010Prop39
140
1.0
102
RTVSPost2010PropOp39
 70
     1
102
RTVSPost2010Prop40
 90
        0
102
RTVSPost2010PropOp40
 70
     1
102
RTVSPost2010Prop41ColorIndex
 90
       18
102
RTVSPost2010Prop41ColorRGB
 90
        0
102
RTVSPost2010PropOp41
 70
     1
102
RTVSPost2010Prop42
 90
       50
102
RTVSPost2010PropOp42
 70
     1
102
RTVSPost2010Prop43
 90
        3
102
RTVSPost2010PropOp43
 70
     1
102
RTVSPost2010Prop44ColorIndex
 90
        5
102
RTVSPost2010Prop44ColorRGB
 90
      255
102
RTVSPost2010PropOp44
 70
     1
102
RTVSPost2010Prop45
280
     0
102
RTVSPost2010PropOp45
 70
     1
102
RTVSPost2010Prop46
 90
       50
102
RTVSPost2010PropOp46
 70
     1
102
RTVSPost2010Prop47
 90
       50
102
RTVSPost2010PropOp47
 70
     1
102
RTVSPost2010Prop48
 90
       50
102
RTVSPost2010PropOp48
 70
     1
102
RTVSPost2010Prop49
280
     0
102
RTVSPost2010PropOp49
 70
     1
102
RTVSPost2010Prop50
 90
       50
102
RTVSPost2010PropOp50
 70
     1
102
RTVSPost2010Prop51ColorIndex
 90
      256
102
RTVSPost2010Prop51ColorRGB
 90
-16777216
102
RTVSPost2010PropOp51
 70
     0
102
RTVSPost2010Prop52
140
1.0
102
RTVSPost2010PropOp52
 70
     0
102
RTVSPost2010Prop53
 90
        2
102
RTVSPost2010PropOp53
 70
     1
102
RTVSPost2010Prop54
  1
strokes_ogs.tif
102
RTVSPost2010PropOp54
 70
     1
102
RTVSPost2010Prop55
280
     0
102
RTVSPost2010PropOp55
 70
     1
102
RTVSPost2010Prop56
140
1.0
102
RTVSPost2010PropOp56
 70
     1
102
RTVSPost2010Prop57
140
1.0
102
RTVSPost2010PropOp57
 70
     1
  0
XRECORD
  5
257
102
{ACAD_REACTORS
330
256
102
}
330
256
100
AcDbXrecord
280
     1
102
RTVSPropertyOp0
 70
     1
102
RTVSPropertyOp1
 70
     1
102
RTVSPropertyOp2
 70
     1
102
RTVSPropertyOp3
 70
     1
102
RTVSPropertyOp4
 70
     1
102
RTVSPropertyOp5
 70
     1
102
RTVSPropertyOp6
 70
     1
102
RTVSPropertyOp7
 70
     1
102
RTVSPropertyOp8
 70
     1
102
RTVSPropertyOp9
 70
     1
102
RTVSPropertyOp10
 70
     1
102
RTVSPropertyOp11
 70
     1
102
RTVSPropertyOp12
 70
     1
102
RTVSPropertyOp13
 70
     1
102
RTVSPropertyOp14
 70
     1
102
RTVSPropertyOp15
 70
     1
102
RTVSPropertyOp16
 70
     1
102
RTVSPropertyOp17
 70
     1
102
RTVSPropertyOp18
 70
     1
102
RTVSPropertyOp19
 70
     1
102
RTVSPropertyOp20
 70
     1
102
RTVSPropertyOp21
 70
     1
102
RTVSPropertyOp22
 70
     1
102
RTVSPropertyOp23
 70
     1
102
RTVSPropertyOp24
 70
     1
102
RTVSPropertyOp25
 70
     1
102
RTVSPropertyOp26
 70
     1
102
RTVSPropertyOp27
 70
     1
102
RTVSPropertyOp28
 70
     1
102
RTVSPropertyOp29
 70
     1
102
RTVSPropertyOp30
 70
     1
102
RTVSPropertyOp31
 70
     1
102
RTVSPropertyOp32
 70
     1
102
RTVSPropertyOp33
 70
     1
102
RTVSPropertyOp34
 70
     1
102
RTVSPropertyOp35
 70
     1
102
RTVSPropertyOp36
 70
     1
102
RTVSPropertyOp37
 70
     1
102
RTVSPropertyOp38
 70
     1
102
RTVSPropertyOp39
 70
     1
102
RTVSPropertyOp40
 70
     1
102
RTVSPropertyOp41
 70
     1
102
RTVSPropertyOp42
 70
     1
102
RTVSPropertyOp43
 70
     1
102
RTVSPropertyOp44
 70
     1
102
RTVSPropertyOp45
 70
     1
102
RTVSPropertyOp46
 70
     1
102
RTVSPropertyOp47
 70
     1
102
RTVSPropertyOp48
 70
     1
102
RTVSPropertyOp49
 70
     1
102
RTVSPropertyOp50
 70
     1
102
RTVSPropertyOp51
 70
     0
102
RTVSPropertyOp52
 70
     0
102
RTVSPropertyOp53
 70
     1
102
RTVSPropertyOp54
 70
     1
102
RTVSPropertyOp55
 70
     1
102
RTVSPropertyOp56
 70
     1
102
RTVSPropertyOp57
 70
     1
102
RTVSPost2010Prop28
280
     0
102
RTVSPost2010PropOp28
 70
     1
102
RTVSPost2010Prop29
280
     1
102
RTVSPost2010PropOp29
 70
     1
102
RTVSPost2010Prop30
280
     1
102
RTVSPost2010PropOp30
 70
     1
102
RTVSPost2010Prop31
280
     0
102
RTVSPost2010PropOp31
 70
     1
102
RTVSPost2010Prop32
280
     0
102
RTVSPost2010PropOp32
 70
     1
102
RTVSPost2010Prop33
280
     0
102
RTVSPost2010PropOp33
 70
     1
102
RTVSPost2010Prop34
280
     0
102
RTVSPost2010PropOp34
 70
     1
102
RTVSPost2010Prop35
280
     0
102
RTVSPost2010PropOp35
 70
     1
102
RTVSPost2010Prop36
280
     0
102
RTVSPost2010PropOp36
 70
     1
102
RTVSPost2010Prop37
 90
       50
102
RTVSPost2010PropOp37
 70
     1
102
RTVSPost2010Prop38
140
0.0
102
RTVSPost2010PropOp38
 70
     1
102
RTVSPost2010Prop39
140
1.0
102
RTVSPost2010PropOp39
 70
     1
102
RTVSPost2010Prop40
 90
        0
102
RTVSPost2010PropOp40
 70
     1
102
RTVSPost2010Prop41ColorIndex
 90
       18
102
RTVSPost2010Prop41ColorRGB
 90
        0
102
RTVSPost2010PropOp41
 70
     1
102
RTVSPost2010Prop42
 90
       50
102
RTVSPost2010PropOp42
 70
     1
102
RTVSPost2010Prop43
 90
        3
102
RTVSPost2010PropOp43
 70
     1
102
RTVSPost2010Prop44ColorIndex
 90
        5
102
RTVSPost2010Prop44ColorRGB
 90
      255
102
RTVSPost2010PropOp44
 70
     1
102
RTVSPost2010Prop45
280
     0
102
RTVSPost2010PropOp45
 70
     1
102
RTVSPost2010Prop46
 90
       50
102
RTVSPost2010PropOp46
 70
     1
102
RTVSPost2010Prop47
 90
       50
102
RTVSPost2010PropOp47
 70
     1
102
RTVSPost2010Prop48
 90
       50
102
RTVSPost2010PropOp48
 70
     1
102
RTVSPost2010Prop49
280
     0
102
RTVSPost2010PropOp49
 70
     1
102
RTVSPost2010Prop50
 90
       50
102
RTVSPost2010PropOp50
 70
     1
102
RTVSPost2010Prop51ColorIndex
 90
      256
102
RTVSPost2010Prop51ColorRGB
 90
-16777216
102
RTVSPost2010PropOp51
 70
     0
102
RTVSPost2010Prop52
140
1.0
102
RTVSPost2010PropOp52
 70
     0
102
RTVSPost2010Prop53
 90
        2
102
RTVSPost2010PropOp53
 70
     1
102
RTVSPost2010Prop54
  1
strokes_ogs.tif
102
RTVSPost2010PropOp54
 70
     1
102
RTVSPost2010Prop55
280
     0
102
RTVSPost2010PropOp55
 70
     1
102
RTVSPost2010Prop56
140
1.0
102
RTVSPost2010PropOp56
 70
     1
102
RTVSPost2010Prop57
140
1.0
102
RTVSPost2010PropOp57
 70
     1
  0
XRECORD
  5
259
102
{ACAD_REACTORS
330
258
102
}
330
258
100
AcDbXrecord
280
     1
102
RTVSPropertyOp0
 70
     1
102
RTVSPropertyOp1
 70
     1
102
RTVSPropertyOp2
 70
     1
102
RTVSPropertyOp3
 70
     1
102
RTVSPropertyOp4
 70
     1
102
RTVSPropertyOp5
 70
     1
102
RTVSPropertyOp6
 70
     1
102
RTVSPropertyOp7
 70
     1
102
RTVSPropertyOp8
 70
     1
102
RTVSPropertyOp9
 70
     1
102
RTVSPropertyOp10
 70
     1
102
RTVSPropertyOp11
 70
     1
102
RTVSPropertyOp12
 70
     1
102
RTVSPropertyOp13
 70
     1
102
RTVSPropertyOp14
 70
     1
102
RTVSPropertyOp15
 70
     1
102
RTVSPropertyOp16
 70
     1
102
RTVSPropertyOp17
 70
     1
102
RTVSPropertyOp18
 70
     1
102
RTVSPropertyOp19
 70
     1
102
RTVSPropertyOp20
 70
     1
102
RTVSPropertyOp21
 70
     1
102
RTVSPropertyOp22
 70
     1
102
RTVSPropertyOp23
 70
     1
102
RTVSPropertyOp24
 70
     1
102
RTVSPropertyOp25
 70
     1
102
RTVSPropertyOp26
 70
     1
102
RTVSPropertyOp27
 70
     1
102
RTVSPropertyOp28
 70
     1
102
RTVSPropertyOp29
 70
     1
102
RTVSPropertyOp30
 70
     1
102
RTVSPropertyOp31
 70
     1
102
RTVSPropertyOp32
 70
     1
102
RTVSPropertyOp33
 70
     1
102
RTVSPropertyOp34
 70
     1
102
RTVSPropertyOp35
 70
     1
102
RTVSPropertyOp36
 70
     1
102
RTVSPropertyOp37
 70
     1
102
RTVSPropertyOp38
 70
     1
102
RTVSPropertyOp39
 70
     1
102
RTVSPropertyOp40
 70
     1
102
RTVSPropertyOp41
 70
     1
102
RTVSPropertyOp42
 70
     1
102
RTVSPropertyOp43
 70
     1
102
RTVSPropertyOp44
 70
     1
102
RTVSPropertyOp45
 70
     1
102
RTVSPropertyOp46
 70
     1
102
RTVSPropertyOp47
 70
     1
102
RTVSPropertyOp48
 70
     1
102
RTVSPropertyOp49
 70
     1
102
RTVSPropertyOp50
 70
     1
102
RTVSPropertyOp51
 70
     0
102
RTVSPropertyOp52
 70
     0
102
RTVSPropertyOp53
 70
     1
102
RTVSPropertyOp54
 70
     1
102
RTVSPropertyOp55
 70
     1
102
RTVSPropertyOp56
 70
     1
102
RTVSPropertyOp57
 70
     1
102
RTVSPost2010Prop28
280
     0
102
RTVSPost2010PropOp28
 70
     1
102
RTVSPost2010Prop29
280
     1
102
RTVSPost2010PropOp29
 70
     1
102
RTVSPost2010Prop30
280
     1
102
RTVSPost2010PropOp30
 70
     1
102
RTVSPost2010Prop31
280
     0
102
RTVSPost2010PropOp31
 70
     1
102
RTVSPost2010Prop32
280
     0
102
RTVSPost2010PropOp32
 70
     1
102
RTVSPost2010Prop33
280
     0
102
RTVSPost2010PropOp33
 70
     1
102
RTVSPost2010Prop34
280
     0
102
RTVSPost2010PropOp34
 70
     1
102
RTVSPost2010Prop35
280
     0
102
RTVSPost2010PropOp35
 70
     1
102
RTVSPost2010Prop36
280
     0
102
RTVSPost2010PropOp36
 70
     1
102
RTVSPost2010Prop37
 90
       50
102
RTVSPost2010PropOp37
 70
     1
102
RTVSPost2010Prop38
140
0.0
102
RTVSPost2010PropOp38
 70
     1
102
RTVSPost2010Prop39
140
1.0
102
RTVSPost2010PropOp39
 70
     1
102
RTVSPost2010Prop40
 90
        0
102
RTVSPost2010PropOp40
 70
     1
102
RTVSPost2010Prop41ColorIndex
 90
       18
102
RTVSPost2010Prop41ColorRGB
 90
        0
102
RTVSPost2010PropOp41
 70
     1
102
RTVSPost2010Prop42
 90
       50
102
RTVSPost2010PropOp42
 70
     1
102
RTVSPost2010Prop43
 90
        3
102
RTVSPost2010PropOp43
 70
     1
102
RTVSPost2010Prop44ColorIndex
 90
        5
102
RTVSPost2010Prop44ColorRGB
 90
      255
102
RTVSPost2010PropOp44
 70
     1
102
RTVSPost2010Prop45
280
     0
102
RTVSPost2010PropOp45
 70
     1
102
RTVSPost2010Prop46
 90
       50
102
RTVSPost2010PropOp46
 70
     1
102
RTVSPost2010Prop47
 90
       50
102
RTVSPost2010PropOp47
 70
     1
102
RTVSPost2010Prop48
 90
       50
102
RTVSPost2010PropOp48
 70
     1
102
RTVSPost2010Prop49
280
     0
102
RTVSPost2010PropOp49
 70
     1
102
RTVSPost2010Prop50
 90
       50
102
RTVSPost2010PropOp50
 70
     1
102
RTVSPost2010Prop51ColorIndex
 90
      256
102
RTVSPost2010Prop51ColorRGB
 90
-16777216
102
RTVSPost2010PropOp51
 70
     0
102
RTVSPost2010Prop52
140
1.0
102
RTVSPost2010PropOp52
 70
     0
102
RTVSPost2010Prop53
 90
        2
102
RTVSPost2010PropOp53
 70
     1
102
RTVSPost2010Prop54
  1
strokes_ogs.tif
102
RTVSPost2010PropOp54
 70
     1
102
RTVSPost2010Prop55
280
     0
102
RTVSPost2010PropOp55
 70
     1
102
RTVSPost2010Prop56
140
1.0
102
RTVSPost2010PropOp56
 70
     1
102
RTVSPost2010Prop57
140
1.0
102
RTVSPost2010PropOp57
 70
     1
  0
XRECORD
  5
249
102
{ACAD_REACTORS
330
248
102
}
330
248
100
AcDbXrecord
280
     1
102
RTVSPropertyOp0
 70
     1
102
RTVSPropertyOp1
 70
     1
102
RTVSPropertyOp2
 70
     1
102
RTVSPropertyOp3
 70
     1
102
RTVSPropertyOp4
 70
     1
102
RTVSPropertyOp5
 70
     1
102
RTVSPropertyOp6
 70
     1
102
RTVSPropertyOp7
 70
     1
102
RTVSPropertyOp8
 70
     1
102
RTVSPropertyOp9
 70
     1
102
RTVSPropertyOp10
 70
     1
102
RTVSPropertyOp11
 70
     1
102
RTVSPropertyOp12
 70
     1
102
RTVSPropertyOp13
 70
     1
102
RTVSPropertyOp14
 70
     1
102
RTVSPropertyOp15
 70
     1
102
RTVSPropertyOp16
 70
     1
102
RTVSPropertyOp17
 70
     1
102
RTVSPropertyOp18
 70
     1
102
RTVSPropertyOp19
 70
     1
102
RTVSPropertyOp20
 70
     1
102
RTVSPropertyOp21
 70
     1
102
RTVSPropertyOp22
 70
     1
102
RTVSPropertyOp23
 70
     1
102
RTVSPropertyOp24
 70
     1
102
RTVSPropertyOp25
 70
     1
102
RTVSPropertyOp26
 70
     1
102
RTVSPropertyOp27
 70
     1
102
RTVSPropertyOp28
 70
     1
102
RTVSPropertyOp29
 70
     1
102
RTVSPropertyOp30
 70
     1
102
RTVSPropertyOp31
 70
     1
102
RTVSPropertyOp32
 70
     1
102
RTVSPropertyOp33
 70
     1
102
RTVSPropertyOp34
 70
     1
102
RTVSPropertyOp35
 70
     1
102
RTVSPropertyOp36
 70
     1
102
RTVSPropertyOp37
 70
     1
102
RTVSPropertyOp38
 70
     1
102
RTVSPropertyOp39
 70
     1
102
RTVSPropertyOp40
 70
     1
102
RTVSPropertyOp41
 70
     1
102
RTVSPropertyOp42
 70
     1
102
RTVSPropertyOp43
 70
     1
102
RTVSPropertyOp44
 70
     1
102
RTVSPropertyOp45
 70
     1
102
RTVSPropertyOp46
 70
     1
102
RTVSPropertyOp47
 70
     1
102
RTVSPropertyOp48
 70
     1
102
RTVSPropertyOp49
 70
     1
102
RTVSPropertyOp50
 70
     1
102
RTVSPropertyOp51
 70
     0
102
RTVSPropertyOp52
 70
     0
102
RTVSPropertyOp53
 70
     1
102
RTVSPropertyOp54
 70
     1
102
RTVSPropertyOp55
 70
     1
102
RTVSPropertyOp56
 70
     1
102
RTVSPropertyOp57
 70
     1
102
RTVSPost2010Prop28
280
     0
102
RTVSPost2010PropOp28
 70
     1
102
RTVSPost2010Prop29
280
     1
102
RTVSPost2010PropOp29
 70
     1
102
RTVSPost2010Prop30
280
     1
102
RTVSPost2010PropOp30
 70
     1
102
RTVSPost2010Prop31
280
     0
102
RTVSPost2010PropOp31
 70
     1
102
RTVSPost2010Prop32
280
     0
102
RTVSPost2010PropOp32
 70
     1
102
RTVSPost2010Prop33
280
     0
102
RTVSPost2010PropOp33
 70
     1
102
RTVSPost2010Prop34
280
     0
102
RTVSPost2010PropOp34
 70
     1
102
RTVSPost2010Prop35
280
     0
102
RTVSPost2010PropOp35
 70
     1
102
RTVSPost2010Prop36
280
     0
102
RTVSPost2010PropOp36
 70
     1
102
RTVSPost2010Prop37
 90
       50
102
RTVSPost2010PropOp37
 70
     1
102
RTVSPost2010Prop38
140
0.0
102
RTVSPost2010PropOp38
 70
     1
102
RTVSPost2010Prop39
140
1.0
102
RTVSPost2010PropOp39
 70
     1
102
RTVSPost2010Prop40
 90
        0
102
RTVSPost2010PropOp40
 70
     1
102
RTVSPost2010Prop41ColorIndex
 90
       18
102
RTVSPost2010Prop41ColorRGB
 90
        0
102
RTVSPost2010PropOp41
 70
     1
102
RTVSPost2010Prop42
 90
       50
102
RTVSPost2010PropOp42
 70
     1
102
RTVSPost2010Prop43
 90
        3
102
RTVSPost2010PropOp43
 70
     1
102
RTVSPost2010Prop44ColorIndex
 90
        5
102
RTVSPost2010Prop44ColorRGB
 90
      255
102
RTVSPost2010PropOp44
 70
     1
102
RTVSPost2010Prop45
280
     0
102
RTVSPost2010PropOp45
 70
     1
102
RTVSPost2010Prop46
 90
       50
102
RTVSPost2010PropOp46
 70
     1
102
RTVSPost2010Prop47
 90
       50
102
RTVSPost2010PropOp47
 70
     1
102
RTVSPost2010Prop48
 90
       50
102
RTVSPost2010PropOp48
 70
     1
102
RTVSPost2010Prop49
280
     0
102
RTVSPost2010PropOp49
 70
     1
102
RTVSPost2010Prop50
 90
       50
102
RTVSPost2010PropOp50
 70
     1
102
RTVSPost2010Prop51ColorIndex
 90
      256
102
RTVSPost2010Prop51ColorRGB
 90
-16777216
102
RTVSPost2010PropOp51
 70
     0
102
RTVSPost2010Prop52
140
1.0
102
RTVSPost2010PropOp52
 70
     0
102
RTVSPost2010Prop53
 90
        2
102
RTVSPost2010PropOp53
 70
     1
102
RTVSPost2010Prop54
  1
strokes_ogs.tif
102
RTVSPost2010PropOp54
 70
     1
102
RTVSPost2010Prop55
280
     0
102
RTVSPost2010PropOp55
 70
     1
102
RTVSPost2010Prop56
140
1.0
102
RTVSPost2010PropOp56
 70
     1
102
RTVSPost2010Prop57
140
1.0
102
RTVSPost2010PropOp57
 70
     1
  0
XRECORD
  5
23B
102
{ACAD_REACTORS
330
23A
102
}
330
23A
100
AcDbXrecord
280
     1
102
RTVSPropertyOp0
 70
     1
102
RTVSPropertyOp1
 70
     1
102
RTVSPropertyOp2
 70
     1
102
RTVSPropertyOp3
 70
     1
102
RTVSPropertyOp4
 70
     1
102
RTVSPropertyOp5
 70
     1
102
RTVSPropertyOp6
 70
     1
102
RTVSPropertyOp7
 70
     1
102
RTVSPropertyOp8
 70
     1
102
RTVSPropertyOp9
 70
     1
102
RTVSPropertyOp10
 70
     1
102
RTVSPropertyOp11
 70
     1
102
RTVSPropertyOp12
 70
     1
102
RTVSPropertyOp13
 70
     1
102
RTVSPropertyOp14
 70
     1
102
RTVSPropertyOp15
 70
     1
102
RTVSPropertyOp16
 70
     1
102
RTVSPropertyOp17
 70
     1
102
RTVSPropertyOp18
 70
     1
102
RTVSPropertyOp19
 70
     1
102
RTVSPropertyOp20
 70
     1
102
RTVSPropertyOp21
 70
     1
102
RTVSPropertyOp22
 70
     1
102
RTVSPropertyOp23
 70
     1
102
RTVSPropertyOp24
 70
     1
102
RTVSPropertyOp25
 70
     1
102
RTVSPropertyOp26
 70
     1
102
RTVSPropertyOp27
 70
     1
102
RTVSPropertyOp28
 70
     1
102
RTVSPropertyOp29
 70
     1
102
RTVSPropertyOp30
 70
     1
102
RTVSPropertyOp31
 70
     1
102
RTVSPropertyOp32
 70
     1
102
RTVSPropertyOp33
 70
     1
102
RTVSPropertyOp34
 70
     1
102
RTVSPropertyOp35
 70
     1
102
RTVSPropertyOp36
 70
     1
102
RTVSPropertyOp37
 70
     1
102
RTVSPropertyOp38
 70
     1
102
RTVSPropertyOp39
 70
     1
102
RTVSPropertyOp40
 70
     1
102
RTVSPropertyOp41
 70
     1
102
RTVSPropertyOp42
 70
     1
102
RTVSPropertyOp43
 70
     1
102
RTVSPropertyOp44
 70
     1
102
RTVSPropertyOp45
 70
     1
102
RTVSPropertyOp46
 70
     1
102
RTVSPropertyOp47
 70
     1
102
RTVSPropertyOp48
 70
     1
102
RTVSPropertyOp49
 70
     1
102
RTVSPropertyOp50
 70
     1
102
RTVSPropertyOp51
 70
     0
102
RTVSPropertyOp52
 70
     0
102
RTVSPropertyOp53
 70
     1
102
RTVSPropertyOp54
 70
     1
102
RTVSPropertyOp55
 70
     1
102
RTVSPropertyOp56
 70
     1
102
RTVSPropertyOp57
 70
     1
102
RTVSPost2010Prop28
280
     0
102
RTVSPost2010PropOp28
 70
     1
102
RTVSPost2010Prop29
280
     1
102
RTVSPost2010PropOp29
 70
     1
102
RTVSPost2010Prop30
280
     1
102
RTVSPost2010PropOp30
 70
     1
102
RTVSPost2010Prop31
280
     0
102
RTVSPost2010PropOp31
 70
     1
102
RTVSPost2010Prop32
280
     0
102
RTVSPost2010PropOp32
 70
     1
102
RTVSPost2010Prop33
280
     0
102
RTVSPost2010PropOp33
 70
     1
102
RTVSPost2010Prop34
280
     0
102
RTVSPost2010PropOp34
 70
     1
102
RTVSPost2010Prop35
280
     0
102
RTVSPost2010PropOp35
 70
     1
102
RTVSPost2010Prop36
280
     0
102
RTVSPost2010PropOp36
 70
     1
102
RTVSPost2010Prop37
 90
       50
102
RTVSPost2010PropOp37
 70
     1
102
RTVSPost2010Prop38
140
0.0
102
RTVSPost2010PropOp38
 70
     1
102
RTVSPost2010Prop39
140
1.0
102
RTVSPost2010PropOp39
 70
     1
102
RTVSPost2010Prop40
 90
        0
102
RTVSPost2010PropOp40
 70
     1
102
RTVSPost2010Prop41ColorIndex
 90
       18
102
RTVSPost2010Prop41ColorRGB
 90
        0
102
RTVSPost2010PropOp41
 70
     1
102
RTVSPost2010Prop42
 90
       50
102
RTVSPost2010PropOp42
 70
     1
102
RTVSPost2010Prop43
 90
        3
102
RTVSPost2010PropOp43
 70
     1
102
RTVSPost2010Prop44ColorIndex
 90
        5
102
RTVSPost2010Prop44ColorRGB
 90
      255
102
RTVSPost2010PropOp44
 70
     1
102
RTVSPost2010Prop45
280
     0
102
RTVSPost2010PropOp45
 70
     1
102
RTVSPost2010Prop46
 90
       50
102
RTVSPost2010PropOp46
 70
     1
102
RTVSPost2010Prop47
 90
       50
102
RTVSPost2010PropOp47
 70
     1
102
RTVSPost2010Prop48
 90
       50
102
RTVSPost2010PropOp48
 70
     1
102
RTVSPost2010Prop49
280
     0
102
RTVSPost2010PropOp49
 70
     1
102
RTVSPost2010Prop50
 90
       50
102
RTVSPost2010PropOp50
 70
     1
102
RTVSPost2010Prop51ColorIndex
 90
      256
102
RTVSPost2010Prop51ColorRGB
 90
-16777216
102
RTVSPost2010PropOp51
 70
     0
102
RTVSPost2010Prop52
140
1.0
102
RTVSPost2010PropOp52
 70
     0
102
RTVSPost2010Prop53
 90
        2
102
RTVSPost2010PropOp53
 70
     1
102
RTVSPost2010Prop54
  1
strokes_ogs.tif
102
RTVSPost2010PropOp54
 70
     1
102
RTVSPost2010Prop55
280
     0
102
RTVSPost2010PropOp55
 70
     1
102
RTVSPost2010Prop56
140
1.0
102
RTVSPost2010PropOp56
 70
     1
102
RTVSPost2010Prop57
140
1.0
102
RTVSPost2010PropOp57
 70
     1
  0
XRECORD
  5
25B
102
{ACAD_REACTORS
330
25A
102
}
330
25A
100
AcDbXrecord
280
     1
102
RTVSPropertyOp0
 70
     1
102
RTVSPropertyOp1
 70
     1
102
RTVSPropertyOp2
 70
     1
102
RTVSPropertyOp3
 70
     1
102
RTVSPropertyOp4
 70
     1
102
RTVSPropertyOp5
 70
     1
102
RTVSPropertyOp6
 70
     1
102
RTVSPropertyOp7
 70
     1
102
RTVSPropertyOp8
 70
     1
102
RTVSPropertyOp9
 70
     1
102
RTVSPropertyOp10
 70
     1
102
RTVSPropertyOp11
 70
     1
102
RTVSPropertyOp12
 70
     1
102
RTVSPropertyOp13
 70
     1
102
RTVSPropertyOp14
 70
     1
102
RTVSPropertyOp15
 70
     1
102
RTVSPropertyOp16
 70
     1
102
RTVSPropertyOp17
 70
     1
102
RTVSPropertyOp18
 70
     1
102
RTVSPropertyOp19
 70
     1
102
RTVSPropertyOp20
 70
     1
102
RTVSPropertyOp21
 70
     1
102
RTVSPropertyOp22
 70
     1
102
RTVSPropertyOp23
 70
     1
102
RTVSPropertyOp24
 70
     1
102
RTVSPropertyOp25
 70
     1
102
RTVSPropertyOp26
 70
     1
102
RTVSPropertyOp27
 70
     1
102
RTVSPropertyOp28
 70
     1
102
RTVSPropertyOp29
 70
     1
102
RTVSPropertyOp30
 70
     1
102
RTVSPropertyOp31
 70
     1
102
RTVSPropertyOp32
 70
     1
102
RTVSPropertyOp33
 70
     1
102
RTVSPropertyOp34
 70
     1
102
RTVSPropertyOp35
 70
     1
102
RTVSPropertyOp36
 70
     1
102
RTVSPropertyOp37
 70
     1
102
RTVSPropertyOp38
 70
     1
102
RTVSPropertyOp39
 70
     1
102
RTVSPropertyOp40
 70
     1
102
RTVSPropertyOp41
 70
     1
102
RTVSPropertyOp42
 70
     1
102
RTVSPropertyOp43
 70
     1
102
RTVSPropertyOp44
 70
     1
102
RTVSPropertyOp45
 70
     1
102
RTVSPropertyOp46
 70
     1
102
RTVSPropertyOp47
 70
     1
102
RTVSPropertyOp48
 70
     1
102
RTVSPropertyOp49
 70
     1
102
RTVSPropertyOp50
 70
     1
102
RTVSPropertyOp51
 70
     0
102
RTVSPropertyOp52
 70
     0
102
RTVSPropertyOp53
 70
     1
102
RTVSPropertyOp54
 70
     1
102
RTVSPropertyOp55
 70
     1
102
RTVSPropertyOp56
 70
     1
102
RTVSPropertyOp57
 70
     1
102
RTVSPost2010Prop28
280
     0
102
RTVSPost2010PropOp28
 70
     1
102
RTVSPost2010Prop29
280
     1
102
RTVSPost2010PropOp29
 70
     1
102
RTVSPost2010Prop30
280
     1
102
RTVSPost2010PropOp30
 70
     1
102
RTVSPost2010Prop31
280
     0
102
RTVSPost2010PropOp31
 70
     1
102
RTVSPost2010Prop32
280
     0
102
RTVSPost2010PropOp32
 70
     1
102
RTVSPost2010Prop33
280
     0
102
RTVSPost2010PropOp33
 70
     1
102
RTVSPost2010Prop34
280
     0
102
RTVSPost2010PropOp34
 70
     1
102
RTVSPost2010Prop35
280
     0
102
RTVSPost2010PropOp35
 70
     1
102
RTVSPost2010Prop36
280
     0
102
RTVSPost2010PropOp36
 70
     1
102
RTVSPost2010Prop37
 90
       50
102
RTVSPost2010PropOp37
 70
     1
102
RTVSPost2010Prop38
140
0.0
102
RTVSPost2010PropOp38
 70
     1
102
RTVSPost2010Prop39
140
1.0
102
RTVSPost2010PropOp39
 70
     1
102
RTVSPost2010Prop40
 90
        0
102
RTVSPost2010PropOp40
 70
     1
102
RTVSPost2010Prop41ColorIndex
 90
       18
102
RTVSPost2010Prop41ColorRGB
 90
        0
102
RTVSPost2010PropOp41
 70
     1
102
RTVSPost2010Prop42
 90
       50
102
RTVSPost2010PropOp42
 70
     1
102
RTVSPost2010Prop43
 90
        3
102
RTVSPost2010PropOp43
 70
     1
102
RTVSPost2010Prop44ColorIndex
 90
        5
102
RTVSPost2010Prop44ColorRGB
 90
      255
102
RTVSPost2010PropOp44
 70
     1
102
RTVSPost2010Prop45
280
     0
102
RTVSPost2010PropOp45
 70
     1
102
RTVSPost2010Prop46
 90
       50
102
RTVSPost2010PropOp46
 70
     1
102
RTVSPost2010Prop47
 90
       50
102
RTVSPost2010PropOp47
 70
     1
102
RTVSPost2010Prop48
 90
       50
102
RTVSPost2010PropOp48
 70
     1
102
RTVSPost2010Prop49
280
     0
102
RTVSPost2010PropOp49
 70
     1
102
RTVSPost2010Prop50
 90
       50
102
RTVSPost2010PropOp50
 70
     1
102
RTVSPost2010Prop51ColorIndex
 90
      256
102
RTVSPost2010Prop51ColorRGB
 90
-16777216
102
RTVSPost2010PropOp51
 70
     0
102
RTVSPost2010Prop52
140
1.0
102
RTVSPost2010PropOp52
 70
     0
102
RTVSPost2010Prop53
 90
        2
102
RTVSPost2010PropOp53
 70
     1
102
RTVSPost2010Prop54
  1
strokes_ogs.tif
102
RTVSPost2010PropOp54
 70
     1
102
RTVSPost2010Prop55
280
     0
102
RTVSPost2010PropOp55
 70
     1
102
RTVSPost2010Prop56
140
1.0
102
RTVSPost2010PropOp56
 70
     1
102
RTVSPost2010Prop57
140
1.0
102
RTVSPost2010PropOp57
 70
     1
  0
ENDSEC
  0
EOF
